Ссылка на приватное зеркало всего за 1$. Внимание количество ограничено!!!

OK

1+1

iTunes

мы

OK

1

WEB-DLRip

Джокер

Пифагор

Ведьмак / The Witcher сериал

Лицензия

ПШазам

ОК

Оно 2

iTunes

30
pack

Вам бонус

ВАЖНО

!!Акция!!

Alien_RageХит недели

RePack

Resident Evil 21

ИГРА 18+

pack

RePack

jed

RePack

fifa19

RePack

Assassins Creed: Odyssey

RePack

NEED FOR SPEED™ PAYBACK

4 сезон

9 сезон

Бесстыжие 9 сезон

Все сериалы

все сериалы на PB.wtf

RePack

FAR CRY 5
  

Тиан – тайна Шмукштрассе / Tian - Das Geheimnis der Schmuckstraße (Дамиан Шиппорейт) [2017, Триллер, WEB-DL 720p] MVO [Официальный звук] pb.wtf

Тиан – тайна Шмукштрассе через торрент pb.wtf

Размер: 3.58 GB | Добавлен: 7 мес. назад | Торрент скачан:19 раз
Скачать  

26-05-2019 05:23 Тиан – тайна Шмукштрассе Скачать торрент  

Тиан – тайна Шмукштрассе / Tian - Das Geheimnis der Schmuckstraße Год выпуска: 2017
Страна: Германия
Жанр: Триллер
Продолжительность: 01:30:32
Перевод: Профессиональный (многоголосый) | Официальный звук
Субтитры: отсутствуют

Режиссер: Дамиан Шиппорейт

rating

В ролях:

Штефан Кампвирт, Катарина Шюттлер, Герман Бейер, Белла Бадинг, Кристоф Томанек, Кристиан Консилио

Описание:

Михаэль, его жена Фредерика и их 8-летняя дочь Сельма после того, как Михаэль потерял работу, вынуждены переселиться в заброшенную квартиру в Санкт-Паули. Раньше в этой квартире жила таинственная китаянка, умершая много лет назад. Но сразу после переселения с новыми жильцами стали происходить странные вещи а потом Фредерика бесследно исчезает. Пытаясь её найти, Михаэль открывает страшную тайну, корни которой уходят в годы Второй мировой войны.

Качество: WEB-DL 720p
Формат: MKV

Видео: h.264, 5282 Кбит/с, 1280x720
Аудио: Русский, (AC3, 2 ch, 384 Кбит/с)
скриншот  скриншот  скриншот  

Общее
Уникальный идентификатор : 241360222669208039269332706668301586339 (0xB59449BBD3AAA987BADC2C6020F90FA3)
Полное имя : D:\Tian.2019.P.WEB_DL.72Op.mkv
Формат : Matroska
Версия формата : Version 2
Размер файла : 3,58 Гбайт
Продолжительность : 1 ч. 30 м.
Режим общего битрейта : Переменный
Общий поток : 5668 Кбит/сек
Дата кодирования : UTC 2019-05-24 04:11:23
Программа кодирования : mkvmerge v8.3.0 ('Over the Horizon') 64bit
Библиотека кодирования : libebml v1.3.1 + libmatroska v1.4.2

Видео
Идентификатор : 1
Формат : AVC
Формат/Информация : Advanced Video Codec
Профиль формата : High@L4.1
Параметр CABAC формата : Да
Параметр RefFrames формата : 4 кадра
Идентификатор кодека : V_MPEG4/ISO/AVC
Продолжительность : 1 ч. 30 м.
Вид битрейта : Переменный
Битрейт : 5282 Кбит/сек
Максимальный битрейт : 6000 Кбит/сек
Ширина : 1280 пикселей
Высота : 720 пикселей
Соотношение сторон : 16:9
Режим частоты кадров : Постоянный
Частота кадров : 23,976 (24000/1001) кадра/сек
Стандарт вещания : Component
Цветовое пространство : YUV
Субдискретизация насыщенности : 4:2:0
Битовая глубина : 8 бит
Тип развёртки : Прогрессивная
Бит/(Пиксели*Кадры) : 0.234
Размер потока : 3,27 Гбайт (91%)
Default : Да
Forced : Нет
Цветовой диапазон : Limited
Основные цвета : BT.709
Характеристики трансфера : BT.709
Коэффициенты матрицы : BT.709

Аудио
Идентификатор : 2
Формат : AC-3
Формат/Информация : Audio Coding 3
Расширение режима : CM (complete main)
Параметр Endianness формата : Big
Идентификатор кодека : A_AC3
Продолжительность : 1 ч. 30 м.
Вид битрейта : Постоянный
Битрейт : 384 Кбит/сек
Каналы : 2 канала
Расположение каналов : Front: L R
Частота : 48,0 КГц
Частота кадров : 31,250 кадров/сек (1536 spf)
Метод сжатия : С потерями
Размер потока : 249 Мбайт (7%)
Default : Да
Forced : Нет

pb.wtf



Скачать Тиан – тайна Шмукштрассе через торрент https://c.radikal.ru/c02/1905/0e/104f75d6ab00.jpg Скачать фильм Тиан – тайна Шмукштрассе через торрент бесплантно в хорошем качестве Описание: Михаэль, его жена Фредерика и их 8-летняя дочь Сельма после того, как Михаэль потерял работу, вынуждены переселиться в ... 10 10 2
Торрент: Зарегистрирован [2019-05-26 05:23] · скачан: 19 раз
Статус: T временная
Размер: 3.58 GB
Как cкачать? Как скачать Тиан – тайна Шмукштрассе через торрент | qTorrent

% Раздел Тема Автор DL S | L
T Фильмы (мультфильмы) cо спонсором показа (Новинки AVI/MKV) [ 1.37 GB ] Тиан – тайна Шмукштрассе / Tian - Das Geheimnis der Schmuckstraße [2017 WEB-DLRip] MVO [Официальный звук] bober100 Скачать
1 | 0

28-11-2019 20:33  

Отключить всю рекламу на сайте

    Дорогой пользователь! Огромная просьба, поблагодарите релизера, оцените раздачу и оставьте свои комментарий, если Вы скачали Тиан – тайна Шмукштрассе через торрент бесплатно! Внесите свою лепту в развитие PiratBit!
    Комментировать посты могут только пользователи прошедшие не сложную регистрацию
    Показать сообщения:    

    Тиан – тайна Шмукштрассе через торрент
    Скачать бесплатно Тиан – тайна Шмукштрассе
    Тиан – тайна Шмукштрассе скачать торрент
    Тиан – тайна Шмукштрассе смотреть онлайн
    Cкачать фильм Тиан – тайна Шмукштрассе бесплатно
    Тиан – тайна Шмукштрассе скачать торрент в хорошем качестве
    Тиан – тайна Шмукштрассе смотреть онлайн бесплатно в хорошем качестве


    Вы не можете начинать темы
    Вы не можете отвечать на сообщения
    Вы не можете редактировать свои сообщения
    Вы не можете удалять свои сообщения
    Вы не можете голосовать в опросах
    Вы не можете прикреплять файлы к сообщениям
    Вы можете скачивать файлы