>

5.6

iTunes

6.1

MVO

5.7

MVO

1

7.4

1 сезон

6.8

iTunes

7.2

1 сезон

13

6.7

1 сезон

8.3

RePack

30

Deluxe

pack

9.9

Лицензия

ВАЖНО

ИГРА 18+

pack

7.3

RePack

MK11

7.7

RePack

jed

7.8

RePack

fifa19

8.5

RePack

RDR2

RePack

NEED FOR SPEED™ PAYBACK

4 сезон

9 сезон

Бесстыжие 9 сезон

Все сериалы

все сериалы на PB.wtf

RePack

FAR CRY 5

Anonymous, добрый вечер, мы катастрофически не успеваем собрать деньги на оплату серверов, помогите нам пожалуйста 5,10,15р., для нас важна любая помощь . В качестве благодарности мы отключим Вам всю рекламу на сайте (укажите свой ник в строку Ваше имя)!

×
  
Magnet ссылка

Игла (Рашид Нугманов) [1988, триллер, драма, BDRip 1080p] pb.wtf

Игла через торрент pb.wtf

Раздают: 1 [ 0 KB/s ]
Размер: 5.6 GB | Добавлен: 2 года 3 мес. назад | Торрент скачан:86 раз
Смотреть онлайн Игла | Скачать    Ребята, помогите собрать деньги на оплату серверов!!!

26-05-2019 07:13 Игла Скачать торрент  

Игла
««Наркомафия вынесла смертный приговор»»

Год выпуска: 1988
Страна: СССР
Жанр: триллер, драма
Продолжительность: 01:16:50
Перевод: Не требуется [Русский]
Субтитры: Русские (SDH), английские, французские, немецкие, испанские, корейские
Режиссер: Рашид Нугманов
В ролях:

Виктор Цой (Моро), Марина Смирнова (Дина), Петр Мамонов (Артур, хирург), Александр Баширов (Спартак), Архимед Искаков, Геннадий Люй, Рахимджан Абдыкадыров, Григорий Эпштейн, Александр Конкс, Райхан Канатбаев, Айхан Чатаева, Владимир Даниленко
Описание:
Вернувшись в Алма-Ату, Моро не хочет, чтобы родители знали о его приезде, и в поисках временного пристанища вспоминает о девушке, которую он когда-то любил. Дина рада встрече, но Моро что-то настораживает в ней.
Наблюдая за ее странными знакомыми, Моро понимает, что Дина стала наркоманкой. Как спасти девушку? Моро увозит ее к морю, где Дина начинает выздоравливать. Однако после возвращения в город все начинается сначала. Моро решает расправиться с поставщиками наркотиков…
Рейтинг:
rating
Качество: BDRip 1080p
Формат: MKV
Видео: AVC, 1424x1080 (4:3), 8674 kbps, 25 fps, 0,226 bpp
Аудио №1: русский / DTS / 2.0 / 48 kHz / 1509 kbps / 24 bit |Оригинал|
Аудио №2: русский / AC3 / 2.0 / 48 kHz / 256 kbps / |Оригинал|
Навигация по главам: есть
Сэмпл
General
Unique ID : 1998779358650485929334494169075719809 (0x180F36E4EA6DB53BBBDBEE1E0369E81)
Complete name : D:\Игла.(The.Needle).1988.BDRip.1080p.mkv
Format : Matroska
Format version : Version 4 / Version 2
File size : 5.60 GiB
Duration : 1 h 16 min
Overall bit rate : 10.4 Mb/s
Encoded date : UTC 2019-05-20 06:41:21
Writing application : mkvmerge v32.0.0 ('Astral Progressions') 64-bit
Writing library : libebml v1.3.7 + libmatroska v1.5.0

Video
ID : 1
Format : AVC
Format/Info : Advanced Video Codec
Format profile : High@L4.1
Format settings, CABAC : Yes
Format settings, ReFrames : 5 frames
Codec ID : V_MPEG4/ISO/AVC
Duration : 1 h 16 min
Bit rate : 8 674 kb/s
Width : 1 424 pixels
Height : 1 080 pixels
Display aspect ratio : 4:3
Frame rate mode : Constant
Frame rate : 25.000 FPS
Color space : YUV
Chroma subsampling : 4:2:0
Bit depth : 8 bits
Scan type : Progressive
Bits/(Pixel*Frame) : 0.226
Stream size : 4.55 GiB (81%)
Writing library : x264 core 157 r2969 d4099dd
Encoding settings : cabac=1 / ref=5 / deblock=1:0:0 / analyse=0x3:0x133 / me=umh / subme=10 / psy=1 / psy_rd=1.00:0.00 / mixed_ref=1 / me_range=24 / chroma_me=1 / trellis=2 / 8x8dct=1 / cqm=0 / deadzone=21,11 / fast_pskip=1 / chroma_qp_offset=-2 / threads=24 / lookahead_threads=4 / sliced_threads=0 / nr=0 / decimate=1 / interlaced=0 / bluray_compat=0 / constrained_intra=0 / bframes=8 / b_pyramid=2 / b_adapt=2 / b_bias=0 / direct=3 / weightb=1 / open_gop=0 / weightp=2 / keyint=250 / keyint_min=25 / scenecut=40 / intra_refresh=0 / rc_lookahead=60 / rc=2pass / mbtree=1 / bitrate=8674 / ratetol=1.0 / qcomp=0.60 / qpmin=0 / qpmax=69 / qpstep=4 / cplxblur=20.0 / qblur=0.5 / ip_ratio=1.40 / aq=1:1.00
Default : Yes
Forced : No

Audio #1
ID : 2
Format : DTS
Format/Info : Digital Theater Systems
Mode : 16
Format settings, Endianness : Big
Codec ID : A_DTS
Duration : 1 h 16 min
Bit rate mode : Constant
Bit rate : 1 509 kb/s
Channel(s) : 2 channels
Channel positions : Front: L R
Sampling rate : 48.0 kHz
Frame rate : 93.750 FPS (512 spf)
Bit depth : 24 bits
Compression mode : Lossy
Stream size : 829 MiB (14%)
Title : DTS, 1509kbps, 2ch
Language : Russian
Default : Yes
Forced : No

Audio #2
ID : 3
Format : AC-3
Format/Info : Audio Coding 3
Mode extension : CM (complete main)
Format settings, Endianness : Big
Codec ID : A_AC3
Duration : 1 h 16 min
Bit rate mode : Constant
Bit rate : 256 kb/s
Channel(s) : 2 channels
Channel positions : Front: L R
Sampling rate : 48.0 kHz
Frame rate : 31.250 FPS (1536 spf)
Compression mode : Lossy
Stream size : 141 MiB (2%)
Title : AC3, 256kbps, 2ch
Language : Russian
Default : No
Forced : No

Text #1
ID : 4
Format : UTF-8
Codec ID : S_TEXT/UTF8
Codec ID/Info : UTF-8 Plain Text
Language : Russian
Default : No
Forced : No

Text #2
ID : 5
Format : UTF-8
Codec ID : S_TEXT/UTF8
Codec ID/Info : UTF-8 Plain Text
Language : English
Default : No
Forced : No

Text #3
ID : 6
Format : UTF-8
Codec ID : S_TEXT/UTF8
Codec ID/Info : UTF-8 Plain Text
Language : French
Default : No
Forced : No

Text #4
ID : 7
Format : UTF-8
Codec ID : S_TEXT/UTF8
Codec ID/Info : UTF-8 Plain Text
Language : German
Default : No
Forced : No

Text #5
ID : 8
Format : UTF-8
Codec ID : S_TEXT/UTF8
Codec ID/Info : UTF-8 Plain Text
Language : Spanish
Default : No
Forced : No

Text #6
ID : 9
Format : UTF-8
Codec ID : S_TEXT/UTF8
Codec ID/Info : UTF-8 Plain Text
Language : Korean
Default : No
Forced : No

Menu
00:00:00.000 : en:Chapter 01
00:07:14.920 : en:Chapter 02
00:14:38.520 : en:Chapter 03
00:22:07.760 : en:Chapter 04
00:34:16.360 : en:Chapter 05
00:47:08.800 : en:Chapter 06
00:55:38.800 : en:Chapter 07
01:05:08.080 : en:Chapter 08
01:12:47.720 : en:Chapter 09
pb.wtf



Скачать Игла через торрент https://d.radikal.ru/d06/1905/9a/069142bdd95c.png Скачать, смотреть онлайн Игла бесплантно в хорошем качестве Описание: Вернувшись в Алма-Ату, Моро не хочет, чтобы родители знали о его приезде, и в поисках временного пристанища вспоминает о девушке, ... 8.8 10 6
Info! Золотая раздача, скачанное не засчитывается.
Торрент: Зарегистрирован [2019-05-26 07:13] · скачан: 86 раз
Статус: √ проверено
Размер: 5.6 GB
Как cкачать? Как скачать Игла через торрент | UTorrent

% Раздел Тема Автор DL S | L
Анальный секс [ 2.43 GB ] Заманчивое Приглашение / An Enticing Invitation [2021 All Sex Anal DP WEB-DL] bashai5 Скачать
20 | 0
Разное [ 92 MB ] Зиг Зиглар - Цели. Как пользоваться жизнью на всю катушку [Всеволод Кузнецов 2020 65-66 kbps MP3] urapavel Скачать
4 | 0
Фильмы 2021 [DVDrip, WEB-DLRip, HDrip] (DUB, MVO) [ 2.05 GB ] Денежная игла / Body Brokers [2021 WEB-DLRip-AVC] от MediaBit Lithuania Скачать
3 | 0
Фильмы 2021 [DVDrip, WEB-DLRip, HDrip] (DUB, MVO) [ 2.18 GB ] Денежная игла / Body Brokers [2021 WEB-DLRip] bober100 Скачать
1 | 0
Фильмы (WEB-DL 720p, 1080p) [ 4.01 GB ] Денежная игла / Body Brokers [2021 WEB-DL 1080p] bober100 Скачать
2 | 0
Фильмы 2021 [DVDrip, WEB-DLRip, HDrip] (DUB, MVO) [ 1.46 GB ] Денежная игла / Body Brokers [2021 WEB-DLRip] bober100 Скачать
1 | 0
Кино СССР [ 5.35 GB ] Игла [1988 BDRip 720p от KORSAR] filbi1976 Скачать
1 | 0

28-11-2019 20:33  

Отключить всю рекламу на сайте

    Дорогой пользователь! Огромная просьба, поблагодарите релизера, оцените раздачу и оставьте свои комментарий, если Вы скачали Игла через торрент бесплатно!
    Комментировать посты могут только пользователи прошедшие не сложную регистрацию
    Показать сообщения:    

    Игла через торрент
    Скачать бесплатно Игла
    Игла скачать торрент
    Игла смотреть онлайн
    Cкачать фильм Игла бесплатно
    Игла скачать торрент в хорошем качестве
    Игла смотреть онлайн бесплатно в хорошем качестве


    Вы не можете начинать темы
    Вы не можете отвечать на сообщения
    Вы не можете редактировать свои сообщения
    Вы не можете удалять свои сообщения
    Вы не можете голосовать в опросах
    Вы не можете прикреплять файлы к сообщениям
    Вы можете скачивать файлы