Anonymous, доброе утро, присоединяйтесь к нам в Telegram!, здесь всегда актуальный адрес сайта, оперативная поддержка и многое другое!

>

5.6

iTunes

7.4

iTunes

5.7

MVO

1

7.7

1 сезон

6.8

iTunes

7.3

1 сезон

13

6.7

1 сезон

8.3

RePack

30

ULTIMATE

pack

9.9

Лицензия

ВАЖНО

ИГРА 18+

pack

7.3

RePack

MK11

7.7

RePack

jed

7.8

RePack

fifa19

8.5

RePack

RDR2

RePack

NEED FOR SPEED™ PAYBACK

4 сезон

9 сезон

Бесстыжие 9 сезон

Все сериалы

все сериалы на PB.wtf

RePack

FAR CRY 5

Anonymous, доброе утро, мы катастрофически не успеваем собрать деньги на оплату серверов, помогите нам пожалуйста 5,10,15р., для нас важна любая помощь . В качестве благодарности мы отключим Вам всю рекламу на сайте (укажите свой ник в строку Ваше имя)!

×
  
Magnet ссылка

Секта / Сезон: 1 / Серии: 1-8 из 8 (Гела Баблуани) [2019, Драма, триллер, WEB-DL 1080p] pb.wtf

Секта через торрент pb.wtf

Качают: 1 [ 0 KB/s ]
Размер: 10.8 GB | Добавлен: 1 год 4 мес. назад | Торрент скачан:70 раз
Смотреть онлайн Секта | Скачать    Ребята, помогите собрать деньги на оплату серверов!!!

26-05-2019 07:14 Секта Скачать торрент  

Секта
Год выпуска: 2019
Страна: Россия
Жанр: Драма, триллер
Продолжительность: ~ 00:45:00
Перевод: Не требуется
Субтитры: отсутствуют

Режиссер: Гела Баблуани

rating


В ролях: Светлана Ходченкова, Анастасия Чистякова (II), Филипп Янковский, Евгений Коряковский, Гела Баблуани, Андрей Филиппак, Вера Романова, Павел Кузьмин, Григорий Сиятвинда, Марта Тимофеева, Екатерина Волкова

Описание: Специалисты по выводу людей из культов, депрограммеры, получают заказ освободить из секты «Первозданных» звезду рекламных роликов, девушку Нику. Методы депрограммеров крайне жесткие – на грани психологического и физического насилия. Для ухода за Никой депрограммеры нанимают сиделку Лилю. Но все идет не по плану, когда могущественный лидер секты объявляет настоящую войну депрограммерам и идет на все, чтобы вернуть Нику..

Качество: WEB-DL 1080p
Формат: MKV

Видео: 1920x1072, (16:9), 25 fps, AVC MPEG-4 (x264), High@L4 ~ 4500 kbps , 0.085 bit/pixel
Аудио: AC3 Dolby Digital, 48.0 kHz, 2/0 (L,R) ch, 192 kbps
скриншот  скриншот  скриншот  скриншот  

Общее
Уникальный идентификатор : 228687334457009752504711417082124973280 (0xAC0B941AC1E4708A8CFB1FCAF71434E0)
Полное имя : C:\Sekta.2019.WEB-DL.(1080p).Getty\Sekta.e01.2019.WEB-DL.(1080p).Getty.mkv
Формат : Matroska
Версия формата : Version 4
Размер файла : 1,43 Гбайт
Продолжительность : 44 м. 8 с.
Режим общего битрейта : Переменный
Общий поток : 4 643 Кбит/сек
Название фильма : Sekta.e01.2019.WEB-DL.(1080p).Getty
Дата кодирования : UTC 2020-05-23 12:57:34
Программа кодирования : mkvmerge v7.8.0 ('River Man') 32bit built on Mar 27 2015 16:18:02
Библиотека кодирования : libebml v1.3.1 + libmatroska v1.4.2

Видео
Идентификатор : 1
Формат : AVC
Формат/Информация : Advanced Video Codec
Профиль формата : High@L4
Настройки формата : CABAC / 1 Ref Frames
Параметр CABAC формата : Да
Параметр RefFrames формата : 1 кадр
Параметр GOP формата : M=1, N=50
Идентификатор кодека : V_MPEG4/ISO/AVC
Продолжительность : 44 м. 8 с.
Вид битрейта : Переменный
Битрейт : 4 359 Кбит/сек
Максимальный битрейт : 4 500 Кбит/сек
Ширина : 1 920 пикселей
Высота : 1 072 пикселя
Соотношение сторон : 16:9
Режим частоты кадров : Постоянный
Частота кадров : 25,000 кадров/сек
Цветовое пространство : YUV
Субдискретизация насыщенности : 4:2:0
Битовая глубина : 8 бит
Тип развёртки : Прогрессивная
Бит/(Пиксели*Кадры) : 0.085
Размер потока : 1,34 Гбайт (94%)
Default : Да
Forced : Нет
Duration_Source : General_Duration

Аудио
Идентификатор : 2
Формат : AC-3
Формат/Информация : Audio Coding 3
Коммерческое название : Dolby Digital
Идентификатор кодека : A_AC3
Продолжительность : 44 м. 8 с.
Вид битрейта : Постоянный
Битрейт : 192 Кбит/сек
Каналы : 2 канала
Channel layout : L R
Частота : 48,0 КГц
Частота кадров : 31,250 кадров/сек (1536 SPF)
Метод сжатия : С потерями
Размер потока : 60,6 Мбайт (4%)
Service kind : Complete Main
Default : Да
Forced : Нет
Duration_Source : General_Duration

pb.wtf



Скачать Секта через торрент http://img14.lostpic.net/2019/05/23/1304c10129296e6106726c42ae80c148.jpg Скачать, смотреть онлайн Секта бесплантно в хорошем качестве Описание: Специалисты по выводу людей из культов, депрограммеры, получают заказ освободить из секты «Первозданных» звезду рекламных ... 8.9 10 8
Торрент: Зарегистрирован [2020-05-26 07:33] · скачан: 70 раз
Статус: √ проверено
Размер: 10.8 GB
Как cкачать? Как скачать Секта через торрент | UTorrent

% Раздел Тема Автор DL S | L
TNT serials [ 4.64 GB ] Секта / Сезон: 1 / Серии: 1-8 из 8 [2019 WEB-DLRip-AVC] bober100 Скачать
1 | 1
TNT serials [ 6.43 GB ] Секта / Сезон: 1 / Серии: 1-8 из 8 [2019 WEB-DL 720p] bober100 Скачать
1 | 0

28-11-2019 20:33  

Отключить всю рекламу на сайте

    Дорогой пользователь! Огромная просьба, поблагодарите релизера, оцените раздачу и оставьте свои комментарий, если Вы скачали Секта через торрент бесплатно!
    Комментировать посты могут только пользователи прошедшие не сложную регистрацию
    Показать сообщения:    

    Секта через торрент
    Скачать бесплатно Секта
    Секта скачать торрент
    Секта смотреть онлайн
    Cкачать фильм Секта бесплатно
    Секта скачать торрент в хорошем качестве
    Секта смотреть онлайн бесплатно в хорошем качестве


    Вы не можете начинать темы
    Вы не можете отвечать на сообщения
    Вы не можете редактировать свои сообщения
    Вы не можете удалять свои сообщения
    Вы не можете голосовать в опросах
    Вы не можете прикреплять файлы к сообщениям
    Вы можете скачивать файлы