Anonymous, добрый вечер, присоединяйтесь к нам в Telegram!, здесь всегда актуальный адрес сайта, оперативная поддержка и многое другое!

>

5.6

iTunes

7.4

MVO

5.7

MVO

1

7.7

1 сезон

6.8

iTunes

7.3

1 сезон

13

6.7

1 сезон

8.3

RePack

30

ULTIMATE

pack

9.9

Лицензия

ВАЖНО

ИГРА 18+

pack

7.3

RePack

MK11

7.7

RePack

jed

7.8

RePack

fifa19

8.5

RePack

RDR2

RePack

NEED FOR SPEED™ PAYBACK

4 сезон

9 сезон

Бесстыжие 9 сезон

Все сериалы

все сериалы на PB.wtf

RePack

FAR CRY 5

Anonymous, добрый вечер, мы катастрофически не успеваем собрать деньги на оплату серверов, помогите нам пожалуйста 5,10,15р., для нас важна любая помощь . В качестве благодарности мы отключим Вам всю рекламу на сайте (укажите свой ник в строку Ваше имя)!

×
  
Magnet ссылка

Секта / Сезон: 1 / Серии: 1-8 из 8 (Гела Баблуани) [2019, Драма, триллер, WEB-DL 720p] pb.wtf

Секта через торрент pb.wtf

Размер: 6.43 GB | Добавлен: 2 года 4 мес. назад | Торрент скачан:288 раз
Смотреть онлайн Секта | Скачать    Ребята, помогите собрать деньги на оплату серверов!!!

26-05-2019 07:46 Секта Скачать торрент  

Секта Год выпуска: 2019
Страна: Россия
Жанр: Драма, триллер
Продолжительность: ~ 00:45:00
Перевод: Не требуется
Субтитры: отсутствуют

Режиссер: Гела Баблуани




В ролях:

Светлана Ходченкова, Анастасия Чистякова (II), Филипп Янковский, Евгений Коряковский, Гела Баблуани, Андрей Филиппак, Вера Романова, Павел Кузьмин, Григорий Сиятвинда, Марта Тимофеева, Екатерина Волкова

Описание:

Специалисты по выводу людей из культов, депрограммеры, получают заказ освободить из секты «Первозданных» звезду рекламных роликов, девушку Нику. Методы депрограммеров крайне жесткие – на грани психологического и физического насилия. Для ухода за Никой депрограммеры нанимают сиделку Лилю. Но все идет не по плану, когда могущественный лидер секты объявляет настоящую войну депрограммерам и идет на все, чтобы вернуть Нику..

Качество: WEB-DL 720p
Формат: MKV

Видео: MPEG4 AVC Video, H264, 16:9 1280x720, 25 fps, ~2600 kbps, 0.113 bit/pixel
Аудио: AC3 Dolby Digital, 48.0 kHz, 2/0 (L,R) ch, 192 kbps
скриншот  скриншот  скриншот  скриншот  

General
Unique ID : 192010718893973480152555099140970124844 (0x9073EB584D28301696CEC26CCD06162C)
Complete name : H:\Sekta.(2019).WEB-DL.720p.ExKinoRay\Sekta.e01.(2019).WEB-DL.720p.ExKinoRay.mkv
Format : Matroska
Format version : Version 2
File size : 873 MiB
Duration : 44 min 6 s
Overall bit rate mode : Constant
Overall bit rate : 2 767 kb/s
Encoded date : UTC 2019-05-22 12:44:18
Writing application : mkvmerge v5.8.0 ('No Sleep / Pillow') built on Sep 2 2012 15:37:04
Writing library : libebml v1.2.3 + libmatroska v1.3.0

Video
ID : 1
Format : AVC
Format/Info : Advanced Video Codec
Format profile : Baseline@L4
Format settings : 4 Ref Frames
Format settings, CABAC : No
Format settings, ReFrames : 4 frames
Codec ID : V_MPEG4/ISO/AVC
Duration : 44 min 6 s
Bit rate mode : Constant
Bit rate : 2 600 kb/s
Width : 1 280 pixels
Height : 720 pixels
Display aspect ratio : 16:9
Frame rate mode : Constant
Frame rate : 25.000 FPS
Standard : PAL
Color space : YUV
Chroma subsampling : 4:2:0
Bit depth : 8 bits
Scan type : Progressive
Bits/(Pixel*Frame) : 0.113
Stream size : 795 MiB (91%)
Language : Russian
Default : Yes
Forced : No
Color range : Limited
Color primaries : BT.709
Transfer characteristics : BT.709
Matrix coefficients : BT.709

Audio
ID : 2
Format : AC-3
Format/Info : Audio Coding 3
Codec ID : A_AC3
Duration : 44 min 6 s
Bit rate mode : Constant
Bit rate : 192 kb/s
Channel(s) : 2 channels
Channel positions : Front: L R
Sampling rate : 48.0 kHz
Frame rate : 31.250 FPS (1536 SPF)
Bit depth : 16 bits
Compression mode : Lossy
Stream size : 60.6 MiB (7%)
Language : Russian
Service kind : Complete Main
Default : Yes
Forced : No

pb.wtf



Скачать Секта через торрент http://img14.lostpic.net/2019/05/23/1304c10129296e6106726c42ae80c148.jpg Скачать, смотреть онлайн Секта бесплантно в хорошем качестве Описание: Специалисты по выводу людей из культов, депрограммеры, получают заказ освободить из секты «Первозданных» звезду рекламных ... 10 10 4
Торрент: Зарегистрирован [2019-05-26 07:46] · скачан: 288 раз
Статус: √ проверено
Размер: 6.43 GB
Как cкачать? Как скачать Секта через торрент | UTorrent

% Раздел Тема Автор DL S | L
TNT serials [ 4.64 GB ] Секта / Сезон: 1 / Серии: 1-8 из 8 [2019 WEB-DLRip-AVC] bober100 Скачать
1 | 0
TNT serials [ 10.8 GB ] Секта / Сезон: 1 / Серии: 1-8 из 8 [2019 WEB-DL 1080p] bober100 Скачать
1 | 1

28-11-2019 20:33  

Отключить всю рекламу на сайте

    Дорогой пользователь! Огромная просьба, поблагодарите релизера, оцените раздачу и оставьте свои комментарий, если Вы скачали Секта через торрент бесплатно!
    Комментировать посты могут только пользователи прошедшие не сложную регистрацию
    Показать сообщения:    

    Секта через торрент
    Скачать бесплатно Секта
    Секта скачать торрент
    Секта смотреть онлайн
    Cкачать фильм Секта бесплатно
    Секта скачать торрент в хорошем качестве
    Секта смотреть онлайн бесплатно в хорошем качестве


    Вы не можете начинать темы
    Вы не можете отвечать на сообщения
    Вы не можете редактировать свои сообщения
    Вы не можете удалять свои сообщения
    Вы не можете голосовать в опросах
    Вы не можете прикреплять файлы к сообщениям
    Вы можете скачивать файлы