Anonymous, доброй ночи, присоединяйтесь к нам в Telegram!, здесь всегда актуальный адрес сайта, оперативная поддержка и многое другое!

>

5.6

iTunes

7.4

iTunes

5.7

MVO

1

7.7

1 сезон

6.8

iTunes

7.3

1 сезон

13

6.7

1 сезон

8.3

RePack

30

ULTIMATE

pack

9.9

Лицензия

ВАЖНО

ИГРА 18+

pack

7.3

RePack

MK11

7.7

RePack

jed

7.8

RePack

fifa19

8.5

RePack

RDR2

RePack

NEED FOR SPEED™ PAYBACK

4 сезон

9 сезон

Бесстыжие 9 сезон

Все сериалы

все сериалы на PB.wtf

RePack

FAR CRY 5

Anonymous, доброй ночи, мы катастрофически не успеваем собрать деньги на оплату серверов, помогите нам пожалуйста 5,10,15р., для нас важна любая помощь . В качестве благодарности мы отключим Вам всю рекламу на сайте (укажите свой ник в строку Ваше имя)!

×
  
Magnet ссылка

Меня зовут Кожа (Абдулла Карсакбаев) [1963, комедия, детский, SATRip от AVP Studio] pb.wtf

Меня зовут Кожа через торрент pb.wtf

Размер: 745 MB | Добавлен: 2 года 4 мес. назад | Торрент скачан:16 раз
Смотреть онлайн Меня зовут Кожа | Скачать    Ребята, помогите собрать деньги на оплату серверов!!!

26-05-2019 08:15 Меня зовут Кожа Скачать торрент  

Меня зовут Кожа
Страна: СССР
Производство: Казахфильм

Жанр: комедия, детский
Год выпуска: 1963
Продолжительность: 01:25:28

Перевод: Не требуется
Cубтитры: нет
Оригинальная аудиодорожка: русский

Режиссер: Абдулла Карсакбаев

В ролях:
Нурлан Сегизбаев, М. Кокенов, Гульнар Курабаева, Е. Курмашев, Бикен Римова, Кененбай Кожабеков, Раиса Мухамедьярова, Заги Курманбаева, Макиль Куланбаев, Байдалда Калтаев, Ахат Толубаев, Калкен Адильшинов...
Об актёрах подробней

Описание:
Удивительно живой и любознательный парнишка Кожá то и дело попадает в разные истории, иногда относительно невинные, а иногда и совсем скверные. Но даже в самых предосудительных его деяниях мы видим фантазию, ум доброту, основу его развивающегося характера - прямо, открытого и решительного.

Исходник: DVB
Качество видео: SATRip
Формат видео: AVI

Видео: 704x384 (1,85:1), 23,976 кадров/сек, XviD ~ 1017 kbps avg, 0.157 bit/pixel
Аудио: 48 kHz, Dolby Digital AC3 2.0, 192 kbps

Раздача от:
Общее
Полное имя : Menya.zovut.Kozha.1963.SATRip_[New-team]_by_AVP_Studio.avi
Формат : AVI
Формат/Информация : Audio Video Interleave
Размер файла : 745 Мбайт
Продолжительность : 1 ч. 25 м.
Общий поток : 1219 Кбит/сек
Программа кодирования : VirtualDubMod 1.5.10.3 | www.virtualdub-fr.org || (build 2550/release)
Библиотека кодирования : VirtualDubMod build 2550/release

Видео
Идентификатор : 0
Формат : MPEG-4 Visual
Профиль формата : Advanced Simple@L5
Настройки формата : BVOP1 / Custom Matrix
Параметр BVOP формата : 1
Параметр QPel формата : Нет
Параметр GMC формата : Без точки перехода
Параметр матрицы формата : Выборочная
Идентификатор кодека : XVID
Идентификатор кодека/Подсказка : XviD
Продолжительность : 1 ч. 25 м.
Битрейт : 1017 Кбит/сек
Ширина : 704 пикселя
Высота : 384 пикселя
Соотношение сторон : 1,85:1
Частота кадров : 23,976 (24000/1001) кадра/сек
Цветовое пространство : YUV
Субдискретизация насыщенности : 4:2:0
Битовая глубина : 8 бит
Тип развёртки : Прогрессивная
Метод сжатия : С потерями
Бит/(Пиксели*Кадры) : 0.157
Размер потока : 622 Мбайт (83%)
Библиотека кодирования : XviD 73

Аудио
Идентификатор : 1
Формат : AC-3
Формат/Информация : Audio Coding 3
Коммерческое название : Dolby Digital
Идентификатор кодека : 2000
Продолжительность : 1 ч. 25 м.
Вид битрейта : Постоянный
Битрейт : 192 Кбит/сек
Каналы : 2 канала
ChannelLayout : L R
Частота : 48,0 КГц
Частота кадров : 31,250 кадров/сек (1536 SPF)
Битовая глубина : 16 бит
Метод сжатия : С потерями
Размер потока : 117 Мбайт (16%)
Выравнивание : Разделение по промежуткам
Продолжительность промежутка : 42 мс. (1,00 видеокадр)
Время предзагрузки промежутка : 500 мс.
pb.wtf



Скачать Меня зовут Кожа через торрент http://picplus.ru/img/1905/26/c23a7c75.png Скачать, смотреть онлайн Меня зовут Кожа бесплантно в хорошем качестве Описание:Удивительно живой и любознательный парнишка Кожá то и дело попадает в разные истории, иногда относительно невинные, а иногда и ... 5 10 1
Торрент: Зарегистрирован [2019-05-26 08:15] · скачан: 16 раз
Статус: √ проверено
Размер: 745 MB
Как cкачать? Как скачать Меня зовут Кожа через торрент | UTorrent

% Раздел Тема Автор DL S | L
Кино СССР [ 1.09 GB ] Меня зовут Кожа [1963 детский SATRip-AVC от AVP Studio] AVP Studio Скачать
2 | 0

28-11-2019 20:33  

Отключить всю рекламу на сайте

    Дорогой пользователь! Огромная просьба, поблагодарите релизера, оцените раздачу и оставьте свои комментарий, если Вы скачали Меня зовут Кожа через торрент бесплатно!
    Комментировать посты могут только пользователи прошедшие не сложную регистрацию
    Показать сообщения:    

    Меня зовут Кожа через торрент
    Скачать бесплатно Меня зовут Кожа
    Меня зовут Кожа скачать торрент
    Меня зовут Кожа смотреть онлайн
    Cкачать фильм Меня зовут Кожа бесплатно
    Меня зовут Кожа скачать торрент в хорошем качестве
    Меня зовут Кожа смотреть онлайн бесплатно в хорошем качестве


    Вы не можете начинать темы
    Вы не можете отвечать на сообщения
    Вы не можете редактировать свои сообщения
    Вы не можете удалять свои сообщения
    Вы не можете голосовать в опросах
    Вы не можете прикреплять файлы к сообщениям
    Вы можете скачивать файлы