Ссылка на приватное зеркало всего за 1$. Внимание количество ограничено!!!

OK

1+1

iTunes

мы

OK

1

WEB-DLRip

Джокер

Пифагор

Ведьмак / The Witcher сериал

iTunes

ПШазам

ОК

Оно 2

iTunes

30
pack

Вам бонус

ВАЖНО

!!Акция!!

Alien_RageХит недели

RePack

Resident Evil 21

ИГРА 18+

pack

RePack

jed

RePack

fifa19

RePack

Assassins Creed: Odyssey

RePack

NEED FOR SPEED™ PAYBACK

4 сезон

9 сезон

Бесстыжие 9 сезон

Все сериалы

все сериалы на PB.wtf

RePack

FAR CRY 5
  

Меня зовут Кожа (Абдулла Карсакбаев) [1963, комедия, детский, SATRip-AVC от AVP Studio] pb.wtf

Меня зовут Кожа через торрент pb.wtf

Раздают: 3 [ 49 KB/s ] Качают: 1 [ 0 KB/s ]
Размер: 1.09 GB | Добавлен: 7 мес. назад | Торрент скачан:12 раз
Скачать  

26-05-2019 08:15 Меня зовут Кожа Скачать торрент  

Меня зовут Кожа
Страна: СССР
Производство: Казахфильм

Жанр: комедия, детский
Год выпуска: 1963
Продолжительность: 01:25:28

Перевод: Не требуется
Cубтитры: нет
Оригинальная аудиодорожка: русский

Режиссер: Абдулла Карсакбаев

В ролях:
Нурлан Сегизбаев, М. Кокенов, Гульнар Курабаева, Е. Курмашев, Бикен Римова, Кененбай Кожабеков, Раиса Мухамедьярова, Заги Курманбаева, Макиль Куланбаев, Байдалда Калтаев, Ахат Толубаев, Калкен Адильшинов...
Об актёрах подробней

Описание:
Удивительно живой и любознательный парнишка Кожá то и дело попадает в разные истории, иногда относительно невинные, а иногда и совсем скверные. Но даже в самых предосудительных его деяниях мы видим фантазию, ум доброту, основу его развивающегося характера - прямо, открытого и решительного.

Исходник: DVB
Качество видео: SATRip-AVC
Формат видео: MKV

Видео: 712->‭1040‬x576 (1,80:1), 23,976 кадров/сек, H264 ~ 1625 kbps avg, 0.165 bit/pixel
Аудио: 48 kHz, Dolby Digital AC3 2.0, 192 kbps

Раздача от:
Общее
Полное имя : Menya.zovut.Kozha.1963.SATRip-AVC_[New-team]_by_AVP_Studio.mkv
Формат : Matroska
Версия формата : Version 2
Размер файла : 1,09 Гбайт
Продолжительность : 1 ч. 25 м.
Общий поток : 1819 Кбит/сек
Дата кодирования : UTC 2019-05-22 23:19:55
Программа кодирования : mkvmerge v6.1.0 ('Old Devil') built on Mar 4 2013 09:10:42
Библиотека кодирования : libebml v1.3.0 + libmatroska v1.4.0

Видео
Идентификатор : 1
Формат : AVC
Формат/Информация : Advanced Video Codec
Профиль формата : High@L4.1
Настройки формата : CABAC / 10 Ref Frames
Параметр CABAC формата : Да
Параметр RefFrames формата : 10 кадров
Идентификатор кодека : V_MPEG4/ISO/AVC
Продолжительность : 1 ч. 25 м.
Битрейт : 1625 Кбит/сек
Ширина : 712 пикселей
Высота : 576 пикселей
Соотношение сторон : 16:9
Соотношение сторон в оригинале : 16:9
Режим частоты кадров : Постоянный
Частота кадров : 23,976 (24000/1001) кадра/сек
Цветовое пространство : YUV
Субдискретизация насыщенности : 4:2:0
Битовая глубина : 8 бит
Тип развёртки : Прогрессивная
Бит/(Пиксели*Кадры) : 0.165
Размер потока : 972 Мбайт (87%)
Библиотека кодирования : x264 core 157 r2935 545de2f
Настройки программы : cabac=1 / ref=10 / deblock=1:-2:-1 / analyse=0x3:0x113 / me=umh / subme=10 / psy=1 / psy_rd=1.00:0.00 / mixed_ref=1 / me_range=32 / chroma_me=1 / trellis=2 / 8x8dct=1 / cqm=0 / deadzone=21,11 / fast_pskip=1 / chroma_qp_offset=-2 / threads=6 / lookahead_threads=1 / sliced_threads=0 / nr=0 / decimate=0 / interlaced=0 / bluray_compat=0 / constrained_intra=0 / bframes=8 / b_pyramid=2 / b_adapt=2 / b_bias=0 / direct=3 / weightb=1 / open_gop=0 / weightp=2 / keyint=250 / keyint_min=25 / scenecut=40 / intra_refresh=0 / rc=2pass / mbtree=0 / bitrate=1625 / ratetol=1.0 / qcomp=0.60 / qpmin=0 / qpmax=69 / qpstep=4 / cplxblur=20.0 / qblur=0.5 / ip_ratio=1.40 / pb_ratio=1.30 / aq=1:1.00
Default : Да
Forced : Нет

Аудио
Идентификатор : 2
Формат : AC-3
Формат/Информация : Audio Coding 3
Коммерческое название : Dolby Digital
Идентификатор кодека : A_AC3
Продолжительность : 1 ч. 25 м.
Вид битрейта : Постоянный
Битрейт : 192 Кбит/сек
Каналы : 2 канала
ChannelLayout : L R
Частота : 48,0 КГц
Частота кадров : 31,250 кадров/сек (1536 SPF)
Битовая глубина : 16 бит
Метод сжатия : С потерями
Размер потока : 117 Мбайт (11%)
Default : Да
Forced : Нет
pb.wtf



Скачать Меня зовут Кожа через торрент http://picplus.ru/img/1905/26/c23a7c75.png Скачать фильм Меня зовут Кожа через торрент бесплантно в хорошем качестве Описание:Удивительно живой и любознательный парнишка Кожá то и дело попадает в разные истории, иногда относительно невинные, а иногда и ... 10 10 1
Торрент: Зарегистрирован [2019-05-26 08:15] · скачан: 12 раз
Статус: √ проверено
Размер: 1.09 GB
Как cкачать? Как скачать Меня зовут Кожа через торрент | qTorrent

% Раздел Тема Автор DL S | L
Кино СССР [ 745 MB ] Меня зовут Кожа [1963 детский SATRip от AVP Studio] AVP Studio Скачать
5 | 0

28-11-2019 20:33  

Отключить всю рекламу на сайте

    Дорогой пользователь! Огромная просьба, поблагодарите релизера, оцените раздачу и оставьте свои комментарий, если Вы скачали Меня зовут Кожа через торрент бесплатно! Внесите свою лепту в развитие PiratBit!
    Комментировать посты могут только пользователи прошедшие не сложную регистрацию
    Показать сообщения:    

    Меня зовут Кожа через торрент
    Скачать бесплатно Меня зовут Кожа
    Меня зовут Кожа скачать торрент
    Меня зовут Кожа смотреть онлайн
    Cкачать фильм Меня зовут Кожа бесплатно
    Меня зовут Кожа скачать торрент в хорошем качестве
    Меня зовут Кожа смотреть онлайн бесплатно в хорошем качестве


    Вы не можете начинать темы
    Вы не можете отвечать на сообщения
    Вы не можете редактировать свои сообщения
    Вы не можете удалять свои сообщения
    Вы не можете голосовать в опросах
    Вы не можете прикреплять файлы к сообщениям
    Вы можете скачивать файлы