Ссылка на приватное зеркало нашего сайта всего за 1$. Внимание количество ограничено!!!

2 сезон

iTunes

1 сезон

1

2 сезон

2 сезон

iTunes

1 сезон

RePack

30

Ultimate

ВАЖНО

ИГРА 18+

pack

RePack

MK11
pack

Забери бонус

RePack

jed

!!Акция!!

Alien_Rage

RePack

fifa19

RePack

Assassins Creed: Odyssey

RePack

NEED FOR SPEED™ PAYBACK

4 сезон

9 сезон

Бесстыжие 9 сезон

Все сериалы

все сериалы на PB.wtf

RePack

FAR CRY 5
  

Плащ и Кинжал / Cloak and Dagger / Сезон: 2 / Серии: 1-10 из 10 (Джина Принс-Байтвуд) [2019, Драма, боевик, фантастика, приключения, WEB-DL 1080p] MVO [TVShows] pb.wtf

Плащ и Кинжал через торрент pb.wtf

Размер: 21.94 GB | Добавлен: 1 год 5 мес. назад | Торрент скачан:5 раз
Скачать  

27-05-2019 04:14 Плащ и Кинжал Скачать торрент  

Плащ и Кинжал / Cloak and Dagger Год выпуска: 2019
Страна: США
Жанр: драма, боевик, фантастика, приключения.
Продолжительность: ~00:44:00 серия
Перевод: Профессиональный (многоголосый закадровый) | TVShows
Субтитры: Английские

Режиссёр: Джина Принс-Байтвуд.

В ролях:

Дерик Августин, Ноэль Рени Берси, Маркус Клэй, Митч Крафт, Майкл Винсент Донован, Дж.Д. Эвермор, Брайан Майкл Холл, Шон Брэдли Хофер, Оливия Холт, Обри Джозеф

Описание:

Межрасовая любовная история повествует о двух подростках, которые обнаруживают у себя новые суперспособности — Тэнди может излучать световые кинжалы, а Тайрон способен облачать людей во тьму. Они быстро понимают, что вместе им лучше, чем порознь, но их чувства по отношению друг к другу делают их уже сложный мир еще более запутанным..

rating


Качество: WEB-DL 1080p
Формат: MKV

Видео: AVC, 1920x1080 (16:9), 24 fps, ~3086 Кбит/с avg
Аудио 1: 48 kHz, AC3 Dolby Digital, 3/2 (L,C,R,l,r) + LFE ch, ~384 kbps TVShows
Аудио 2:48 kHz, E-AC Dolby Digital, 3/2 (L,C,R,l,r) + LFE ch, ~640 kbps
Общее
Уникальный идентификатор                 : 24845575247662659462319516491924572125 (0x12B1156FB091F0E10707A70C936307DD)
Полное имя                               : D:\Marvels.Cloak.and.Dagger.S02.1080p.TVShows\Marvels.Cloak.and.Dagger.S02E01.1080p.TVShows.mkv
Формат                                   : Matroska
Версия формата                           : Version 4 / Version 2
Размер файла                             : 1,22 Гбайт
Продолжительность                        : 42 м. 27 с.
Общий поток                              : 4112 Кбит/сек
Дата кодирования                         : UTC 2019-04-11 13:38:31
Программа кодирования                    : mkvmerge v31.0.0 ('Dolores In A Shoestand') 64-bit
Библиотека кодирования                   : libebml v1.3.6 + libmatroska v1.4.9

Видео
Идентификатор                            : 1
Формат                                   : AVC
Формат/Информация                        : Advanced Video Codec
Профиль формата                          : High@L4
Настройки формата                        : CABAC / 4 Ref Frames
Параметр CABAC формата                   : Да
Параметр RefFrames формата               : 4 кадра
Идентификатор кодека                     : V_MPEG4/ISO/AVC
Продолжительность                        : 42 м. 27 с.
Битрейт                                  : 3086 Кбит/сек
Ширина                                   : 1920 пикселей
Высота                                   : 1080 пикселей
Соотношение сторон                       : 16:9
Режим частоты кадров                     : Постоянный
Частота кадров                           : 23,976 (24000/1001) кадра/сек
Цветовое пространство                    : YUV
Субдискретизация насыщенности            : 4:2:0
Битовая глубина                          : 8 бит
Тип развёртки                            : Прогрессивная
Бит/(Пиксели*Кадры)                      : 0.062
Размер потока                            : 937 Мбайт (75%)
Язык                                     : English
Default                                  : Да
Forced                                   : Нет
Цветовой диапазон                        : Limited
Основные цвета                           : BT.709
Характеристики трансфера                 : BT.709
Коэффициенты матрицы                     : BT.709

Аудио #1
Идентификатор                            : 2
Формат                                   : AC-3
Формат/Информация                        : Audio Coding 3
Идентификатор кодека                     : A_AC3
Продолжительность                        : 42 м. 27 с.
Вид битрейта                             : Постоянный
Битрейт                                  : 384 Кбит/сек
Каналы                                   : 6 каналов
Расположение каналов                     : Front: L C R, Side: L R, LFE
Частота                                  : 48,0 КГц
Частота кадров                           : 31,250 кадров/сек (1536 SPF)
Битовая глубина                          : 16 бит
Метод сжатия                             : С потерями
Размер потока                            : 117 Мбайт (9%)
Заголовок                                : TVShows
Язык                                     : Russian
ServiceKind/String                       : Complete Main
Default                                  : Да
Forced                                   : Да

Аудио #2
Идентификатор                            : 3
Формат                                   : E-AC-3
Формат/Информация                        : Enhanced Audio Coding 3
Идентификатор кодека                     : A_EAC3
Продолжительность                        : 42 м. 27 с.
Вид битрейта                             : Постоянный
Битрейт                                  : 640 Кбит/сек
Каналы                                   : 6 каналов
Расположение каналов                     : Front: L C R, Side: L R, LFE
Частота                                  : 48,0 КГц
Частота кадров                           : 187,500 кадров/сек (256 SPF)
Метод сжатия                             : С потерями
Размер потока                            : 194 Мбайт (16%)
Заголовок                                : Original
Язык                                     : English
ServiceKind/String                       : Complete Main
Default                                  : Нет
Forced                                   : Нет

Текст
Идентификатор                            : 4
Формат                                   : UTF-8
Идентификатор кодека                     : S_TEXT/UTF8
Идентификатор кодека/Информация          : UTF-8 Plain Text
Продолжительность                        : 42 м. 19 с.
Битрейт                                  : 82 бит/сек
ElementCount                             : 793
Размер потока                            : 25,5 Кбайт (0%)
Заголовок                                : English
Язык                                     : English
Default                                  : Нет
Forced                                   : Нет
скриншот  скриншот  скриншот  

скриншот  скриншот  скриншот  
Внимание! Раздача ведётся путём добавления новых серий; при каждом добавлении создаётся новый торрент. Чтобы начать докачку новой серии,пользователям необходимо сделать следующее:
(1) остановить скачивание,
(2) удалить старый торрент у себя из клиента (старые серии удалять не надо),
(3) скачать новый торрент и запустить его у себя в клиенте вместо старого, при этом указать клиенту путь в старую папку куда и должнопроисходить скачивание новых серий.

Ваш клиент при этом должен произвести хеширование (проверку) старой папки (если не производит сам - помогите ему сделать это), и будет докачивать только те серии
которых у вас ещё нет. Старые серии при этом не удаляются, а продолжают раздаваться!

Eсли вы уже удалили старые серии, то предотвратить повторную закачку старых серий можно, отжав галочку в соответствующих местах при запуске нового торрента.

По возможности, желательно не удалять старые серии как можно дольше чтобы релизёр не столько продолжал раздавать старые серии, а смог сконцентрироваться на новых.
pb.wtf



Скачать Плащ и Кинжал через торрент https://i110.fastpic.ru/big/2019/0411/23/7e9832ab1bc01ab37ec333d4be984223.jpg Скачать фильм Плащ и Кинжал через торрент бесплантно в хорошем качестве Описание: Межрасовая любовная история повествует о двух подростках, которые обнаруживают у себя новые суперспособности — Тэнди может ... 10 10 2
Торрент: Зарегистрирован [2019-06-05 02:03] · скачан: 5 раз
Статус: √ проверено
Размер: 21.94 GB
Как cкачать? Как скачать Плащ и Кинжал через торрент | qTorrent

28-11-2019 20:33  

Отключить всю рекламу на сайте

    Дорогой пользователь! Огромная просьба, поблагодарите релизера, оцените раздачу и оставьте свои комментарий, если Вы скачали Плащ и Кинжал через торрент бесплатно! Внесите свою лепту в развитие PiratBit!
    Комментировать посты могут только пользователи прошедшие не сложную регистрацию
    Показать сообщения:    

    Плащ и Кинжал через торрент
    Скачать бесплатно Плащ и Кинжал
    Плащ и Кинжал скачать торрент
    Плащ и Кинжал смотреть онлайн
    Cкачать фильм Плащ и Кинжал бесплатно
    Плащ и Кинжал скачать торрент в хорошем качестве
    Плащ и Кинжал смотреть онлайн бесплатно в хорошем качестве


    Вы не можете начинать темы
    Вы не можете отвечать на сообщения
    Вы не можете редактировать свои сообщения
    Вы не можете удалять свои сообщения
    Вы не можете голосовать в опросах
    Вы не можете прикреплять файлы к сообщениям
    Вы можете скачивать файлы