Ссылка на приватное зеркало всего за 1$. Внимание количество ограничено!!!

OK

1+1

iTunes

мы

OK

1

WEB-DLRip

Джокер

Пифагор

Ведьмак / The Witcher сериал

iTunes

ПШазам

ОК

Оно 2

iTunes

30
pack

Вам бонус

ВАЖНО

!!Акция!!

Alien_RageХит недели

RePack

Resident Evil 21

ИГРА 18+

pack

RePack

jed

RePack

fifa19

RePack

Assassins Creed: Odyssey

RePack

NEED FOR SPEED™ PAYBACK

4 сезон

9 сезон

Бесстыжие 9 сезон

Все сериалы

все сериалы на PB.wtf

RePack

FAR CRY 5
  

Первый король / Il primo re (Маттео Ровере) [2019, драма, история, BDRip 1080p] MVO [@MUZOBOZ@] pb.wtf

Первый король через торрент pb.wtf

Размер: 11.28 GB | Добавлен: 7 мес. назад | Торрент скачан:79 раз
Скачать  

27-05-2019 05:20 Первый король Скачать торрент  

Первый король / Il primo re Год выпуска: 2019
Страна: Италия, Бельгия
Жанр: драма, история
Продолжительность: 02:08:08
Перевод: Любительский (многоголосый) | @MUZOBOZ@
Субтитры: отсутствуют

Режиссер: Маттео Ровере

rating

В ролях:

Алессандро Борги, Алессио Лапиче, Фабрицио Ронджоне, Массимилиано Росси, Таня Гаррибба, Лоренцо Глейхесес, Винченцо Креа, Макс Малатеста, Фьоренцо Матту, Габриэль Монтези

Описание:

Ромул и Рем, два брата-пастуха, отправляются в путешествие, после которого один из них станет основателем самой великой нации, а другой погибнет от рук родного брата.

Качество: BDRip 1080p
Формат: MKV

Видео: h.264, 12.2 Mb/s, 1920x800
Аудио#1: Русский (AC3, 2 ch, 448 Кбит/с)
скриншот  скриншот  скриншот  

Общее
Уникальный идентификатор : 198450922222465022345484062536214660880 (0x954C41E2577BDE92A4D43F7EB8AA4710)
Полное имя : D:\Il.Primo.Re.2O19.P.BDRip.1O8Op.mkv
Формат : Matroska
Версия формата : Version 2
Размер файла : 11,3 Гбайт
Продолжительность : 2 ч. 8 м.
Режим общего битрейта : Переменный
Общий поток : 12,6 Мбит/сек
Дата кодирования : UTC 2019-05-26 02:10:47
Программа кодирования : mkvmerge v8.3.0 ('Over the Horizon') 64bit
Библиотека кодирования : libebml v1.3.1 + libmatroska v1.4.2

Видео
Идентификатор : 1
Формат : AVC
Формат/Информация : Advanced Video Codec
Профиль формата : High@L4.1
Параметр CABAC формата : Да
Параметр RefFrames формата : 4 кадра
Идентификатор кодека : V_MPEG4/ISO/AVC
Продолжительность : 2 ч. 8 м.
Вид битрейта : Переменный
Битрейт : 12,2 Мбит/сек
Максимальный битрейт : 14,0 Мбит/сек
Ширина : 1920 пикселей
Высота : 800 пикселей
Соотношение сторон : 2,40:1
Режим частоты кадров : Постоянный
Частота кадров : 23,976 (24000/1001) кадра/сек
Стандарт вещания : Component
Цветовое пространство : YUV
Субдискретизация насыщенности : 4:2:0
Битовая глубина : 8 бит
Тип развёртки : Прогрессивная
Бит/(Пиксели*Кадры) : 0.323
Размер потока : 10,7 Гбайт (94%)
Default : Да
Forced : Нет
Цветовой диапазон : Limited
Основные цвета : BT.709
Характеристики трансфера : BT.709
Коэффициенты матрицы : BT.709

Аудио
Идентификатор : 2
Формат : AC-3
Формат/Информация : Audio Coding 3
Расширение режима : CM (complete main)
Параметр Endianness формата : Big
Идентификатор кодека : A_AC3
Продолжительность : 2 ч. 8 м.
Вид битрейта : Постоянный
Битрейт : 448 Кбит/сек
Каналы : 2 канала
Расположение каналов : Front: L R
Частота : 48,0 КГц
Частота кадров : 31,250 кадров/сек (1536 spf)
Метод сжатия : С потерями
Размер потока : 411 Мбайт (4%)
Default : Да
Forced : Нет

pb.wtf



Скачать Первый король через торрент https://c.radikal.ru/c02/1905/e8/fdc14b55644a.jpg Скачать фильм Первый король через торрент бесплантно в хорошем качестве Описание: Ромул и Рем, два брата-пастуха, отправляются в путешествие, после которого один из них станет основателем самой великой нации, а ... 9.8 10 6
Торрент: Зарегистрирован [2019-05-27 05:20] · скачан: 79 раз
Статус: # сомнительно
Размер: 11.28 GB
Как cкачать? Как скачать Первый король через торрент | qTorrent

% Раздел Тема Автор DL S | L
# Фильмы (мультфильмы) cо спонсором показа (Новинки AVI/MKV) [ 6.3 GB ] Первый король / Il primo re [2019 история BDRip 720p] MVO [@MUZOBOZ@] bober100 Скачать
1 | 0
T Фильмы (мультфильмы) cо спонсором показа (Новинки AVI/MKV) [ 2.05 GB ] Первый король / Il primo re [2019 история HDRip] MVO [@MUZOBOZ@] bober100 Скачать
2 | 0
T Фильмы (мультфильмы) cо спонсором показа (Новинки AVI/MKV) [ 1.37 GB ] Первый король / Il primo re [2019 история HDRip] MVO [@MUZOBOZ@] bober100 Скачать
2 | 0

28-11-2019 20:33  

Отключить всю рекламу на сайте

    Дорогой пользователь! Огромная просьба, поблагодарите релизера, оцените раздачу и оставьте свои комментарий, если Вы скачали Первый король через торрент бесплатно! Внесите свою лепту в развитие PiratBit!
    Комментировать посты могут только пользователи прошедшие не сложную регистрацию
    Показать сообщения:    

    Первый король через торрент
    Скачать бесплатно Первый король
    Первый король скачать торрент
    Первый король смотреть онлайн
    Cкачать фильм Первый король бесплатно
    Первый король скачать торрент в хорошем качестве
    Первый король смотреть онлайн бесплатно в хорошем качестве


    Вы не можете начинать темы
    Вы не можете отвечать на сообщения
    Вы не можете редактировать свои сообщения
    Вы не можете удалять свои сообщения
    Вы не можете голосовать в опросах
    Вы не можете прикреплять файлы к сообщениям
    Вы можете скачивать файлы