Ссылка на приватное зеркало всего за 1$. Внимание количество ограничено!!!

OK

1+1

iTunes

мы

OK

1

WEB-DLRip

Джокер

Пифагор

Ведьмак / The Witcher сериал

Лицензия

ПШазам

ОК

Оно 2

iTunes

30
pack

Вам бонус

ВАЖНО

!!Акция!!

Alien_RageХит недели

RePack

Resident Evil 21

ИГРА 18+

pack

RePack

jed

RePack

fifa19

RePack

Assassins Creed: Odyssey

RePack

NEED FOR SPEED™ PAYBACK

4 сезон

9 сезон

Бесстыжие 9 сезон

Все сериалы

все сериалы на PB.wtf

RePack

FAR CRY 5
  

Деньги / Don / Money (Пак Ну-ри) [2019, криминал, драма, WEB-DL 720p] MVO [КОЛОБОК] pb.wtf

Деньги через торрент pb.wtf

Размер: 4.7 GB | Добавлен: 7 мес. назад | Торрент скачан:10 раз
Скачать  

27-05-2019 07:36 Деньги Скачать торрент  

Деньги / Don / MoneyГод выпуска: 2019
Страна: Южная Корея
Жанр: криминал, драма
Продолжительность: 01:57:22
Перевод: Любительский (многоголосый) | КОЛОБОК
Субтитры: отсутствуют

Режиссер: Пак Ну-ри

rating

В ролях: Рю Джун-ёль, Ю Джи-тхэ, Чо У-джин, Ким Джэ-ён, Ким Мин-джэ, Чон Ман-щик, Вон Джин-а, Ким Джон-су, Сон Джон-хак, Лим Сэ-ми

Описание: История о брокере-новичке, который мечтает разбогатеть. Он встречает фондового мошенника и втягивается в рискованную авантюру с ценными бумагами. Сделка проходит успешно, парень срывает большой куш и тут же попадает в поле зрения службы финансового надзора.

Качество: WEB-DL 720p
Формат: MKV

Видео: h.264,5 330 Кбит/с, 1280x536
Аудио: Русский, (AC3, 2 ch, 384 Кбит/с)
скриншот  скриншот  скриншот  

Общее
Уникальный идентификатор : 247152678425947161171749914158728110083 (0xB9EFDFDA182070C79CF0275350726003)
Полное имя : D:\Money.2019.Pk.WEB-DL.72Op.mkv
Формат : Matroska
Версия формата : Version 2
Размер файла : 4,70 Гбайт
Продолжительность : 1 ч. 57 м.
Режим общего битрейта : Переменный
Общий поток : 5730 Кбит/сек
Дата кодирования : UTC 2019-05-26 04:38:45
Программа кодирования : mkvmerge v8.3.0 ('Over the Horizon') 64bit
Библиотека кодирования : libebml v1.3.1 + libmatroska v1.4.2

Видео
Идентификатор : 1
Формат : AVC
Формат/Информация : Advanced Video Codec
Профиль формата : High@L4.1
Параметр CABAC формата : Да
Параметр RefFrames формата : 4 кадра
Идентификатор кодека : V_MPEG4/ISO/AVC
Продолжительность : 1 ч. 57 м.
Вид битрейта : Переменный
Битрейт : 5330 Кбит/сек
Максимальный битрейт : 6000 Кбит/сек
Ширина : 1280 пикселей
Высота : 536 пикселей
Соотношение сторон : 2,40:1
Режим частоты кадров : Постоянный
Частота кадров : 23,976 (24000/1001) кадра/сек
Стандарт вещания : Component
Цветовое пространство : YUV
Субдискретизация насыщенности : 4:2:0
Битовая глубина : 8 бит
Тип развёртки : Прогрессивная
Бит/(Пиксели*Кадры) : 0.318
Размер потока : 4,29 Гбайт (91%)
Default : Да
Forced : Нет
Цветовой диапазон : Limited
Основные цвета : BT.709
Характеристики трансфера : BT.709
Коэффициенты матрицы : BT.709

Аудио
Идентификатор : 2
Формат : AC-3
Формат/Информация : Audio Coding 3
Расширение режима : CM (complete main)
Параметр Endianness формата : Big
Идентификатор кодека : A_AC3
Продолжительность : 1 ч. 57 м.
Вид битрейта : Постоянный
Битрейт : 384 Кбит/сек
Каналы : 2 канала
Расположение каналов : Front: L R
Частота : 48,0 КГц
Частота кадров : 31,250 кадров/сек (1536 spf)
Метод сжатия : С потерями
Размер потока : 322 Мбайт (7%)
Default : Да
Forced : Нет

pb.wtf



Скачать Деньги через торрент https://c.radikal.ru/c19/1905/9e/b714003bcb1f.jpg Скачать фильм Деньги через торрент бесплантно в хорошем качестве Описание: История о брокере-новичке, который мечтает разбогатеть. Он встречает фондового мошенника и втягивается в рискованную авантюру с ... 10 10 2
Торрент: Зарегистрирован [2019-05-27 07:36] · скачан: 10 раз
Статус: T временная
Размер: 4.7 GB
Как cкачать? Как скачать Деньги через торрент | qTorrent

% Раздел Тема Автор DL S | L
Порно фильмы с сюжетом [ 1.3 GB ] What We Do For Money / Что Мы Делаем За Деньги [2019 All Sex Couples Feature WEB-DL] Venom Скачать
1 | 0
Фильмы с авторской озвучкой [ 1.46 GB ] Больше денег / Деньги деньги еще деньги / Mo' Money [1992 WEB-DLRip] [AVO] killermax2013 Скачать
1 | 0
Фильмы (WEB-DL 720p, 1080p) [ 2.78 GB ] Больше денег / Деньги деньги еще деньги / Mo' Money [1992 WEB-DL 720p] [MVO] + [AVO] killermax2013 Скачать
1 | 0
T Фильмы (мультфильмы) cо спонсором показа (Новинки AVI/MKV) [ 1.46 GB ] Деньги / Don / Money [2019 WEB-DLRip] MVO [КОЛОБОК] bober100 Скачать
1 | 0

28-11-2019 20:33  

Отключить всю рекламу на сайте

    Дорогой пользователь! Огромная просьба, поблагодарите релизера, оцените раздачу и оставьте свои комментарий, если Вы скачали Деньги через торрент бесплатно! Внесите свою лепту в развитие PiratBit!
    Комментировать посты могут только пользователи прошедшие не сложную регистрацию
    Показать сообщения:    

    Деньги через торрент
    Скачать бесплатно Деньги
    Деньги скачать торрент
    Деньги смотреть онлайн
    Cкачать фильм Деньги бесплатно
    Деньги скачать торрент в хорошем качестве
    Деньги смотреть онлайн бесплатно в хорошем качестве


    Вы не можете начинать темы
    Вы не можете отвечать на сообщения
    Вы не можете редактировать свои сообщения
    Вы не можете удалять свои сообщения
    Вы не можете голосовать в опросах
    Вы не можете прикреплять файлы к сообщениям
    Вы можете скачивать файлы