Ссылка на приватное зеркало всего за 1$. Внимание количество ограничено!!!

OK

1+1

iTunes

мы

OK

1

WEB-DLRip

Джокер

Пифагор

Ведьмак / The Witcher сериал

iTunes

ПШазам

ОК

Оно 2

iTunes

30
pack

Вам бонус

ВАЖНО

!!Акция!!

Alien_RageХит недели

RePack

Resident Evil 21

ИГРА 18+

pack

RePack

jed

RePack

fifa19

RePack

Assassins Creed: Odyssey

RePack

NEED FOR SPEED™ PAYBACK

4 сезон

9 сезон

Бесстыжие 9 сезон

Все сериалы

все сериалы на PB.wtf

RePack

FAR CRY 5
  

Молитва / La prière (Седрик Кан) [2018, драма, BDRip 720p] MVO ["Синема УС"] pb.wtf

Молитва через торрент pb.wtf

Размер: 5.23 GB | Добавлен: 8 мес. назад | Торрент скачан:8 раз
Скачать  

27-05-2019 07:55 Молитва Скачать торрент  

Молитва / La prière Год выпуска: 2018
Страна: Франция
Жанр: драма
Продолжительность: 01:47:37
Перевод: Любительский (многоголосый) | "Синема УС"
Субтитры: отсутствуют

Режиссер: Седрик Кан

rating

В ролях:

Антони Бажон, Дэмиен Шапель, Алекс Брендемюль, Луиз Гринбер, Ханна Шигулла, Антуан Амблард, Майте Маилле, Магне Брекке, Иньяки Агирре, Биран Ба

Описание:

Героиновый наркоман со стажем присоединяется к изолированной католической общине в Альпах. Вместе с другими пациентами Тома привыкает к суровой дисциплине, регулярной молитве и тяжелому труду. Он находит здесь новых друзей и любовь. И новую зависимость.

Качество: BDRip 720p
Формат: MKV

Видео: h.264,6 373 Кбит/с, 1280x688
Аудио#1: Русский (AC3, 2 ch, 448 Кбит/с)
скриншот  скриншот  скриншот  

Общее
Уникальный идентификатор : 197702503189663213994746301085665212624 (0x94BC1DFA172C866BBA5A4C774EF838D0)
Полное имя : D:\La.Priere.2018.P.BDRip.72Op.mkv
Формат : Matroska
Версия формата : Version 2
Размер файла : 5,23 Гбайт
Продолжительность : 1 ч. 47 м.
Режим общего битрейта : Переменный
Общий поток : 6959 Кбит/сек
Дата кодирования : UTC 2019-05-26 04:33:05
Программа кодирования : mkvmerge v8.3.0 ('Over the Horizon') 64bit
Библиотека кодирования : libebml v1.3.1 + libmatroska v1.4.2

Видео
Идентификатор : 1
Формат : AVC
Формат/Информация : Advanced Video Codec
Профиль формата : High@L4.1
Параметр CABAC формата : Да
Параметр RefFrames формата : 4 кадра
Идентификатор кодека : V_MPEG4/ISO/AVC
Продолжительность : 1 ч. 47 м.
Вид битрейта : Переменный
Битрейт : 6373 Кбит/сек
Максимальный битрейт : 7500 Кбит/сек
Ширина : 1280 пикселей
Высота : 688 пикселей
Соотношение сторон : 1,85:1
Режим частоты кадров : Постоянный
Частота кадров : 23,976 (24000/1001) кадра/сек
Стандарт вещания : Component
Цветовое пространство : YUV
Субдискретизация насыщенности : 4:2:0
Битовая глубина : 8 бит
Тип развёртки : Прогрессивная
Бит/(Пиксели*Кадры) : 0.302
Размер потока : 4,79 Гбайт (92%)
Default : Да
Forced : Нет
Цветовой диапазон : Limited
Основные цвета : BT.709
Характеристики трансфера : BT.709
Коэффициенты матрицы : BT.709

Аудио
Идентификатор : 2
Формат : AC-3
Формат/Информация : Audio Coding 3
Расширение режима : CM (complete main)
Параметр Endianness формата : Big
Идентификатор кодека : A_AC3
Продолжительность : 1 ч. 47 м.
Вид битрейта : Постоянный
Битрейт : 448 Кбит/сек
Каналы : 2 канала
Расположение каналов : Front: L R
Частота : 48,0 КГц
Частота кадров : 31,250 кадров/сек (1536 spf)
Метод сжатия : С потерями
Размер потока : 345 Мбайт (6%)
Default : Да
Forced : Нет

pb.wtf



Скачать Молитва через торрент https://b.radikal.ru/b19/1905/94/2768205a5af6.jpg Скачать фильм Молитва через торрент бесплантно в хорошем качестве Описание: Героиновый наркоман со стажем присоединяется к изолированной католической общине в Альпах. Вместе с другими пациентами Тома ... 10 10 2
Торрент: Зарегистрирован [2019-05-27 07:55] · скачан: 8 раз
Статус: # сомнительно
Размер: 5.23 GB
Как cкачать? Как скачать Молитва через торрент | qTorrent

% Раздел Тема Автор DL S | L
T Фильмы (мультфильмы) cо спонсором показа (Новинки AVI/MKV) [ 1.37 GB ] Молитва / La prière [2018 HDRip] MVO ["Синема УС"] bober100 Скачать
1 | 0
Научно-популярные фильмы [ 1.71 GB ] Поминальная молитва по последнему белому человеку / La priere commemorative pour le dernier [2008 Документальный научно-познавательный история этнография HDTVRip двухголосый] кэп Скачать
1 | 0

28-11-2019 20:33  

Отключить всю рекламу на сайте

    Дорогой пользователь! Огромная просьба, поблагодарите релизера, оцените раздачу и оставьте свои комментарий, если Вы скачали Молитва через торрент бесплатно! Внесите свою лепту в развитие PiratBit!
    Комментировать посты могут только пользователи прошедшие не сложную регистрацию
    Показать сообщения:    

    Молитва через торрент
    Скачать бесплатно Молитва
    Молитва скачать торрент
    Молитва смотреть онлайн
    Cкачать фильм Молитва бесплатно
    Молитва скачать торрент в хорошем качестве
    Молитва смотреть онлайн бесплатно в хорошем качестве


    Вы не можете начинать темы
    Вы не можете отвечать на сообщения
    Вы не можете редактировать свои сообщения
    Вы не можете удалять свои сообщения
    Вы не можете голосовать в опросах
    Вы не можете прикреплять файлы к сообщениям
    Вы можете скачивать файлы