Ссылка на приватное зеркало всего за 1$. Внимание количество ограничено!!!

OK

1+1

iTunes

мы

OK

1

WEB-DLRip

Джокер

Пифагор

Ведьмак / The Witcher сериал

iTunes

ПШазам

ОК

Оно 2

iTunes

30
pack

Вам бонус

ВАЖНО

!!Акция!!

Alien_RageХит недели

RePack

Resident Evil 21

ИГРА 18+

pack

RePack

jed

RePack

fifa19

RePack

Assassins Creed: Odyssey

RePack

NEED FOR SPEED™ PAYBACK

4 сезон

9 сезон

Бесстыжие 9 сезон

Все сериалы

все сериалы на PB.wtf

RePack

FAR CRY 5
  

Город-мираж: игроки / Maritime Сity (Сунь Тянь) [2019, Фантастика, WEBRip 720p] MVO [КОЛОБОК] pb.wtf

Город-мираж: игроки через торрент pb.wtf

Размер: 3.69 GB | Добавлен: 8 мес. назад | Торрент скачан:31 раз
Скачать  

27-05-2019 08:30 Город-мираж: игроки Скачать торрент  

Город-мираж: игроки / Maritime Сity Год выпуска: 2019
Страна: Китай
Жанр: Фантастика
Продолжительность: 01:33:27
Перевод: Любительский (многоголосый) | КОЛОБОК
Субтитры: отсутствуют

Режиссер: Сунь Тянь



В ролях: Лю Дуань Дуань, Ван Вэй, Гао Цян, Лю Илинь

Описание: После того, как Кэ, главный дизайнер комьютерной игры "Охота на жертву", становится свидетелем того, как один из бета-тестеров едва не умирает, он решает отложить релиз игры, но его начальство интересует только прибыль. И пока Кэ мучается кошмарами о летающих по небу синих китах, игроки из его игры начинают охотится на жертв в реальном мире!Фильм выпущен кино-подразделением компании Tencent, с 2017 года ведущей активную борьбу со смертельной игрой "Синий кит".

Качество: WEBRip 720p
Формат: MKV

Видео: h.264,5 273 Кбит/с, 1280x536
Аудио: Русский, (AC3, 2 ch, 384 Кбит/с)
скриншот  скриншот  скриншот  

Общее
Уникальный идентификатор : 202493472006866287312748217303937575080 (0x9856D2FA0F15048ABF6D6985213FE8A8)
Полное имя : D:\Maritime.city.2019.Pk.WEBRip.72Op.mkv
Формат : Matroska
Версия формата : Version 2
Размер файла : 3,69 Гбайт
Продолжительность : 1 ч. 33 м.
Режим общего битрейта : Переменный
Общий поток : 5659 Кбит/сек
Дата кодирования : UTC 2019-05-26 04:35:29
Программа кодирования : mkvmerge v8.3.0 ('Over the Horizon') 64bit
Библиотека кодирования : libebml v1.3.1 + libmatroska v1.4.2

Видео
Идентификатор : 1
Формат : AVC
Формат/Информация : Advanced Video Codec
Профиль формата : High@L4.1
Параметр CABAC формата : Да
Параметр RefFrames формата : 4 кадра
Идентификатор кодека : V_MPEG4/ISO/AVC
Продолжительность : 1 ч. 33 м.
Вид битрейта : Переменный
Битрейт : 5273 Кбит/сек
Максимальный битрейт : 6000 Кбит/сек
Ширина : 1280 пикселей
Высота : 536 пикселей
Соотношение сторон : 2,40:1
Режим частоты кадров : Постоянный
Частота кадров : 23,976 (24000/1001) кадра/сек
Стандарт вещания : Component
Цветовое пространство : YUV
Субдискретизация насыщенности : 4:2:0
Битовая глубина : 8 бит
Тип развёртки : Прогрессивная
Бит/(Пиксели*Кадры) : 0.314
Размер потока : 3,37 Гбайт (91%)
Default : Да
Forced : Нет
Цветовой диапазон : Limited
Основные цвета : BT.709
Характеристики трансфера : BT.709
Коэффициенты матрицы : BT.709

Аудио
Идентификатор : 2
Формат : AC-3
Формат/Информация : Audio Coding 3
Расширение режима : CM (complete main)
Параметр Endianness формата : Big
Идентификатор кодека : A_AC3
Продолжительность : 1 ч. 33 м.
Вид битрейта : Постоянный
Битрейт : 384 Кбит/сек
Каналы : 2 канала
Расположение каналов : Front: L R
Частота : 48,0 КГц
Частота кадров : 31,250 кадров/сек (1536 spf)
Метод сжатия : С потерями
Размер потока : 257 Мбайт (7%)
Default : Да
Forced : Нет

pb.wtf



Скачать Город-мираж: игроки через торрент https://b.radikal.ru/b05/1905/d8/aad01518e02d.jpg Скачать фильм Город-мираж: игроки через торрент бесплантно в хорошем качестве Описание: После того, как Кэ, главный дизайнер комьютерной игры "Охота на жертву", становится свидетелем того, как один из бета-тестеров ... 10 10 4
Торрент: Зарегистрирован [2019-05-27 08:30] · скачан: 31 раз
Статус: T временная
Размер: 3.69 GB
Как cкачать? Как скачать Город-мираж: игроки через торрент | qTorrent

% Раздел Тема Автор DL S | L
T Фильмы (мультфильмы) cо спонсором показа (Новинки AVI/MKV) [ 1.37 GB ] Город-мираж: игроки / Maritime Сity [2019 WEBRip] MVO [КОЛОБОК] bober100 Скачать
1 | 0

28-11-2019 20:33  

Отключить всю рекламу на сайте

    Дорогой пользователь! Огромная просьба, поблагодарите релизера, оцените раздачу и оставьте свои комментарий, если Вы скачали Город-мираж: игроки через торрент бесплатно! Внесите свою лепту в развитие PiratBit!
    Комментировать посты могут только пользователи прошедшие не сложную регистрацию
    Показать сообщения:    

    Город-мираж: игроки через торрент
    Скачать бесплатно Город-мираж: игроки
    Город-мираж: игроки скачать торрент
    Город-мираж: игроки смотреть онлайн
    Cкачать фильм Город-мираж: игроки бесплатно
    Город-мираж: игроки скачать торрент в хорошем качестве
    Город-мираж: игроки смотреть онлайн бесплатно в хорошем качестве


    Вы не можете начинать темы
    Вы не можете отвечать на сообщения
    Вы не можете редактировать свои сообщения
    Вы не можете удалять свои сообщения
    Вы не можете голосовать в опросах
    Вы не можете прикреплять файлы к сообщениям
    Вы можете скачивать файлы