новый адрес
Мега распродажа FORZA HORIZON 4 ULTIMATE+ВСЕ DLC+ОНЛАЙН всего за 499р. 349 руб. (супер цена). Внимание количество ограничено!!!

iTunes

1+1

iTunes

мы

iTunes

1

iTunes

Чернобыль

iTunes

Ральф против интернета

Лицензия

ПШазам

Лицензия

Оно 2

Лицензия

30
pack

ВАЖНО

!!Акция!!

Alien_RageХит недели

RePack

Resident Evil 21

ИГРА 18+

pack

RePack

jed

!!Акция!!

Alien_Rage

RePack

fifa19

RePack

Assassins Creed: Odyssey

RePack

NEED FOR SPEED™ PAYBACK

3 сезон

9 сезон

Бесстыжие 9 сезон

Все сериалы

все сериалы на PB.wtf

RePack

FAR CRY 5
Ребята, катастрофически не хватает 1900р. для оплаты серверов за Октябрь (всвязи с блокировками трафик упал в 3 раза), 1-2р., выручайте.
  

Молодожен (Валерий Исаков) [1963, СССР, короткометражка, семейный, SATRip-AVC от AVP Studio] pb.wtf

Молодожен через торрент pb.wtf

Раздают: 2 [ 0 KB/s ]
Размер: 369 MB | Добавлен: 5 мес. 25 д. назад | Торрент скачан:11 раз
Скачать  

27-05-2019 08:45 Молодожен Скачать торрент  

Молодожен
Страна: СССР
Производство: Одесская киностудия

Жанр: короткометражка, семейный
Год выпуска: 1963
Продолжительность: 00:27:22

Перевод: Не требуется
Cубтитры: нет
Оригинальная аудиодорожка: русский

Режиссер: Валерий Исаков

В ролях:
Василий Векшин, Семён Соколовский, Инна Макарова, Антонина Павлычева...
Об актёрах подробней

Описание:
По одноименному рассказу Юрия Нагибина.
В плавни Днестра приезжает на охоту Сергей Воронов. Он здесь впервые, и ему рекомендуют егеря Василия по прозвищу «Молодожён». Вечером у костра мужчины заговорили о женах. Циничные взгляды Воронова вызывают у Василия протест. Ему хочется домой. С иронией Воронов соглашается отпустить «Молодожёна» до утра. Когда Василий возвращается, Воронов с удивлением узнает, что егерь женат более десяти лет. Не растерял с годами Василий юношеского задора, влюблённости в свою жену. Поэтому и прозвали его односельчане "Молодожёном".

Исходник: DVB
Качество видео: SATRip-AVC
Формат видео: MKV

Видео: 704->800x570 (1,404:1), 25,000 кадров/сек, H264 ~ 1657 kbps avg, 0.165 bit/pixel
Аудио: 48 kHz, Dolby Digital AC3 2.0, 192 kbps

Раздача от:
Общее
Полное имя : Molodozhen.1963.SATRip-AVC_[New-team]_by_AVP_Studio.mkv
Формат : Matroska
Версия формата : Version 2
Размер файла : 372 Мбайт
Продолжительность : 27 м. 35 с.
Общий поток : 1886 Кбит/сек
Дата кодирования : UTC 2019-05-23 00:07:10
Программа кодирования : mkvmerge v6.1.0 ('Old Devil') built on Mar 4 2013 09:10:42
Библиотека кодирования : libebml v1.3.0 + libmatroska v1.4.0

Видео
Идентификатор : 1
Формат : AVC
Формат/Информация : Advanced Video Codec
Профиль формата : High@L4.1
Настройки формата : CABAC / 10 Ref Frames
Параметр CABAC формата : Да
Параметр RefFrames формата : 10 кадров
Идентификатор кодека : V_MPEG4/ISO/AVC
Продолжительность : 27 м. 35 с.
Битрейт : 1693 Кбит/сек
Ширина : 704 пикселя
Высота : 570 пикселей
Соотношение сторон : 1,405
Соотношение сторон в оригинале : 1,404
Режим частоты кадров : Постоянный
Частота кадров : 25,000 кадров/сек
Цветовое пространство : YUV
Субдискретизация насыщенности : 4:2:0
Битовая глубина : 8 бит
Тип развёртки : Прогрессивная
Бит/(Пиксели*Кадры) : 0.169
Размер потока : 327 Мбайт (88%)
Библиотека кодирования : x264 core 157 r2935 545de2f
Настройки программы : cabac=1 / ref=10 / deblock=1:-2:-1 / analyse=0x3:0x113 / me=umh / subme=10 / psy=1 / psy_rd=1.00:0.00 / mixed_ref=1 / me_range=32 / chroma_me=1 / trellis=2 / 8x8dct=1 / cqm=0 / deadzone=21,11 / fast_pskip=1 / chroma_qp_offset=-2 / threads=6 / lookahead_threads=1 / sliced_threads=0 / nr=0 / decimate=0 / interlaced=0 / bluray_compat=0 / constrained_intra=0 / bframes=8 / b_pyramid=2 / b_adapt=2 / b_bias=0 / direct=3 / weightb=1 / open_gop=0 / weightp=2 / keyint=250 / keyint_min=25 / scenecut=40 / intra_refresh=0 / rc=2pass / mbtree=0 / bitrate=1693 / ratetol=1.0 / qcomp=0.60 / qpmin=0 / qpmax=69 / qpstep=4 / cplxblur=20.0 / qblur=0.5 / ip_ratio=1.40 / pb_ratio=1.30 / aq=1:1.00
Default : Да
Forced : Нет

Аудио
Идентификатор : 2
Формат : AC-3
Формат/Информация : Audio Coding 3
Коммерческое название : Dolby Digital
Идентификатор кодека : A_AC3
Продолжительность : 27 м. 35 с.
Вид битрейта : Постоянный
Битрейт : 192 Кбит/сек
Каналы : 2 канала
ChannelLayout : L R
Частота : 48,0 КГц
Частота кадров : 31,250 кадров/сек (1536 SPF)
Битовая глубина : 16 бит
Метод сжатия : С потерями
Размер потока : 37,9 Мбайт (10%)
Default : Да
Forced : Нет
pb.wtf



Скачать Молодожен через торрент http://picplus.ru/img/1905/27/e8d0f76b.png Скачать фильм Молодожен через торрент бесплантно в хорошем качестве Описание:По одноименному рассказу Юрия Нагибина.В плавни Днестра приезжает на охоту Сергей Воронов. Он здесь впервые, и ему рекомендуют ... 5 10 1
Торрент: Зарегистрирован [2019-05-27 08:45] · скачан: 11 раз
Статус: √ проверено
Размер: 369 MB
Как cкачать? Как скачать Молодожен через торрент | qTorrent

% Раздел Тема Автор DL S | L
Кино СССР [ 240 MB ] Молодожен [1963 СССР короткометражка SATRip от AVP Studio] AVP Studio Скачать
1 | 0
Кино СССР [ 1.09 GB ] Повесть о молодожёнах [1959 СССР DVDRip-AVC от AVP Studio] AVP Studio Скачать
1 | 0
Кино СССР [ 745 MB ] Повесть о молодожёнах [1959 СССР DVDRip от AVP Studio] AVP Studio Скачать
1 | 0
Кино СССР [ 1.09 GB ] Повесть о молодожёнах [1959 СССР DVDRip от AVP Studio] AVP Studio Скачать
1 | 0
Фильмы 2001-2005 [ 2.09 GB ] Молодожены / Just Married [2003 HDRip-AVC] DUB stalonе Скачать
1 | 0
Русское любительское видео [ 457 MB ] Молодожёны. [2014 Amateur. CamRip] Pir@tya2010 Скачать
1 | 0
Русское любительское видео [ 119 MB ] Домашний архив распутных молодоженов!Девочка пышная! [All sexOral sex CamRip] erotica Скачать
1 | 0


>> Регистрируемся здесь <<






Отзывы и комментарии о схеме читаем и пишем здесь: ---> Отзывы и комментарии о схеме

Новые благодарочки в телеграм довольных пользователей:
скриншот   скриншот   скриншот   скриншот   скриншот
    Дорогой пользователь! Огромная просьба, поблагодарите релизера, оцените раздачу и оставьте свои комментарий, если Вы скачали Молодожен через торрент бесплатно! Внесите свою лепту в развитие PiratBit!
    Комментировать посты могут только пользователи прошедшие не сложную регистрацию
    Показать сообщения:    

    Молодожен через торрент
    Скачать бесплатно Молодожен
    Молодожен скачать торрент
    Молодожен смотреть онлайн
    Cкачать фильм Молодожен бесплатно
    Молодожен скачать торрент в хорошем качестве
    Молодожен смотреть онлайн бесплатно в хорошем качестве


    Вы не можете начинать темы
    Вы не можете отвечать на сообщения
    Вы не можете редактировать свои сообщения
    Вы не можете удалять свои сообщения
    Вы не можете голосовать в опросах
    Вы не можете прикреплять файлы к сообщениям
    Вы можете скачивать файлы