Marvel's Avengers Deluxe Edition (супер цена) 159р. Внимание количество ограничено!!!

2 сезон

iTunes

iTunes

1

iTunes

iTunes

iTunes

WEBRip

iTunes

30
pack

Новость дня

ВАЖНО

!!Акция!!

Alien_RageХит недели

RePack

Horizon Zero Dawn

ИГРА 18+

pack

RePack

jed

!!Акция!!

Alien_Rage

RePack

fifa19

RePack

Assassins Creed: Odyssey

RePack

NEED FOR SPEED™ PAYBACK

4 сезон

9 сезон

Бесстыжие 9 сезон

Все сериалы

все сериалы на PB.wtf

RePack

FAR CRY 5
  

Мои дни с Мёрси / My Days of Mercy (Тали Шалом-Эзер) [2017, драма, мелодрама, WEB-DL 720p] MVO ["Синема УС"] pb.wtf

Мои дни с Мёрси через торрент pb.wtf

Размер: 4.3 GB | Добавлен: 1 год 3 мес. назад | Торрент скачан:7 раз
Скачать  

27-05-2019 10:59 Мои дни с Мёрси Скачать торрент  

Мои дни с Мёрси / My Days of Mercy
Год выпуска: 2017
Страна: Великобритания, США
Жанр: драма, мелодрама
Продолжительность: 01:48:45
Перевод: Любительский (многоголосый) | "Синема УС"
Субтитры: отсутствуют

Режиссер: Тали Шалом-Эзер

rating

В ролях:

Эллен Пейдж, Кейт Мара, Элиас Котеас, Эми Саймец, Брайан Джерати, Бо Напп, Тоня Пинкинс, Джейк Робинсон, Чарли Шотуэлл, Джордан Тровиллион

Описание:

Люси, активистка движения против смертной казни, на одном из митингов встречает шикарную Мёрси, связанную с жертвой преступления, в котором обвиняют её отца. Женщины постепенно узнают друг друга и их отношения меняются от враждебности до любопытства и физической страсти.

Качество: WEB-DL 720p
Формат: MKV

Видео: h.264,5 272 Кбит/с, 1280x534
Аудио: Русский, (AC3, 2 ch, 384 Кбит/с)
скриншот  скриншот  скриншот  

Общее
Уникальный идентификатор : 216881172816504892833995128578545967352 (0xA329CB6503C79259B83FF6784FF660F8)
Полное имя : D:\Mercy.2O19.P.WEB-DL.72Op.mkv
Формат : Matroska
Версия формата : Version 2
Размер файла : 4,30 Гбайт
Продолжительность : 1 ч. 48 м.
Режим общего битрейта : Переменный
Общий поток : 5657 Кбит/сек
Дата кодирования : UTC 2019-05-26 01:58:48
Программа кодирования : mkvmerge v8.3.0 ('Over the Horizon') 64bit
Библиотека кодирования : libebml v1.3.1 + libmatroska v1.4.2

Видео
Идентификатор : 1
Формат : AVC
Формат/Информация : Advanced Video Codec
Профиль формата : High@L4.1
Параметр CABAC формата : Да
Параметр RefFrames формата : 4 кадра
Идентификатор кодека : V_MPEG4/ISO/AVC
Продолжительность : 1 ч. 48 м.
Вид битрейта : Переменный
Битрейт : 5272 Кбит/сек
Максимальный битрейт : 6000 Кбит/сек
Ширина : 1280 пикселей
Высота : 534 пикселя
Соотношение сторон : 2,40:1
Режим частоты кадров : Постоянный
Частота кадров : 23,976 (24000/1001) кадра/сек
Стандарт вещания : Component
Цветовое пространство : YUV
Субдискретизация насыщенности : 4:2:0
Битовая глубина : 8 бит
Тип развёртки : Прогрессивная
Бит/(Пиксели*Кадры) : 0.315
Размер потока : 3,92 Гбайт (91%)
Default : Да
Forced : Нет
Цветовой диапазон : Limited
Основные цвета : BT.709
Характеристики трансфера : BT.709
Коэффициенты матрицы : BT.709

Аудио
Идентификатор : 2
Формат : AC-3
Формат/Информация : Audio Coding 3
Расширение режима : CM (complete main)
Параметр Endianness формата : Big
Идентификатор кодека : A_AC3
Продолжительность : 1 ч. 48 м.
Вид битрейта : Постоянный
Битрейт : 384 Кбит/сек
Каналы : 2 канала
Расположение каналов : Front: L R
Частота : 48,0 КГц
Частота кадров : 31,250 кадров/сек (1536 spf)
Метод сжатия : С потерями
Размер потока : 299 Мбайт (7%)
Default : Да
Forced : Нет

pb.wtf



Скачать Мои дни с Мёрси через торрент https://c.radikal.ru/c19/1905/b7/182f1b95bd9e.jpg Скачать фильм Мои дни с Мёрси через торрент бесплантно в хорошем качестве Описание: Люси, активистка движения против смертной казни, на одном из митингов встречает шикарную Мёрси, связанную с жертвой преступления, ... 10 10 2
Торрент: Зарегистрирован [2019-05-27 10:59] · скачан: 7 раз
Статус: T временная
Размер: 4.3 GB
Как cкачать? Как скачать Мои дни с Мёрси через торрент | qTorrent

% Раздел Тема Автор DL S | L
T Фильмы (мультфильмы) cо спонсором показа (Новинки AVI/MKV) [ 4.85 GB ] Мои дни с Мёрси / My Days of Mercy [2017 WEB-DL 1080p] MVO ["Синема УС"] bober100 Скачать
1 | 0
T Фильмы (мультфильмы) cо спонсором показа (Новинки AVI/MKV) [ 1.37 GB ] Мои дни с Мёрси / My Days of Mercy [2017 WEB-DLRip] MVO ["Синема УС"] bober100 Скачать
1 | 0

28-11-2019 20:33  

Отключить всю рекламу на сайте

    Дорогой пользователь! Огромная просьба, поблагодарите релизера, оцените раздачу и оставьте свои комментарий, если Вы скачали Мои дни с Мёрси через торрент бесплатно! Внесите свою лепту в развитие PiratBit!
    Комментировать посты могут только пользователи прошедшие не сложную регистрацию
    Показать сообщения:    

    Мои дни с Мёрси через торрент
    Скачать бесплатно Мои дни с Мёрси
    Мои дни с Мёрси скачать торрент
    Мои дни с Мёрси смотреть онлайн
    Cкачать фильм Мои дни с Мёрси бесплатно
    Мои дни с Мёрси скачать торрент в хорошем качестве
    Мои дни с Мёрси смотреть онлайн бесплатно в хорошем качестве


    Вы не можете начинать темы
    Вы не можете отвечать на сообщения
    Вы не можете редактировать свои сообщения
    Вы не можете удалять свои сообщения
    Вы не можете голосовать в опросах
    Вы не можете прикреплять файлы к сообщениям
    Вы можете скачивать файлы