Ссылка на приватное зеркало нашего сайта всего за 1$. Внимание количество ограничено!!!

2 сезон

iTunes

1 сезон

1

iTunes

iTunes

iTunes

1 сезон

RePack

30

ИГРА 18+

pack

ВАЖНО

!!Акция!!

Alien_RageХит недели

RePack

MK11
pack

Забери бонус

RePack

jed

!!Акция!!

Alien_Rage

RePack

fifa19

RePack

Assassins Creed: Odyssey

RePack

NEED FOR SPEED™ PAYBACK

4 сезон

9 сезон

Бесстыжие 9 сезон

Все сериалы

все сериалы на PB.wtf

RePack

FAR CRY 5
  

Коп / Сезон: 1 / Серии: 1-8 из 8 (Радда Новикова) [2019, Детектив, мелодрама, SATRip] pb.wtf

Коп через торрент pb.wtf

Размер: 5.05 GB | Добавлен: 1 год 4 мес. назад | Торрент скачан:47 раз
Скачать  

27-05-2019 12:07 Коп Скачать торрент  

Коп Год выпуска: 2019
Страна: Россия
Жанр: Детектив, мелодрама
Продолжительность: ~ 00:46:00
Субтитры: отсутствуют

Режиссер: Радда Новикова



В ролях:

Анна Снаткина, Кирилл Зайцев (II), Иван Шмаков, Прохор Дубравин, Сергей Угрюмов, Николай Козак, Анатолий Горячев, Екатерина Маликова, Дмитрий Блохин, Виктор Цекало, Мария Баева, Дмитрий Артаев, Джунсуке Киносита, Алексей Гришин

Описание:

За основу сюжета взят обмен опытом между отделами полиции РФ и США. Лейтенанта полиции Колю отправляют в Америку, где он в одночасье становится любимцем отдела, раскрыв за короткий срок несколько очень запутанных дел. На смену ему присылают американского копа Джона. Как только он переступает границы нашей страны, его жизнь меняется навсегда…

Качество: SATRip
Формат: AVI

Видео: XviD, ~ 1650 Кбит/с, 720x400
Аудио: MP3, 2 ch, 192 Кбит/с
скриншот  скриншот  скриншот  скриншот  

Общее
Полное имя : C:\Users\Бобер\Desktop\Kop.2019.XviD.SATRip.25Kuzmich\Kop.e01.XviD.SATRip.25Kuzmich.avi
Формат : AVI
Формат/Информация : Audio Video Interleave
Размер файла : 641 Мбайт
Продолжительность : 48 м. 23 с.
Общий поток : 1851 Кбит/сек
Программа кодирования : VirtualDubMod 1.5.10.3 (build 2550/release)
Библиотека кодирования : VirtualDubMod build 2550/release

Видео
Идентификатор : 0
Формат : MPEG-4 Visual
Профиль формата : Advanced Simple@L5
Параметр BVOP формата : 1
Параметр QPel формата : Нет
Параметр GMC формата : Без точки перехода
Параметр матрицы формата : Default (MPEG)
Идентификатор кодека : XVID
Идентификатор кодека/Подсказка : XviD
Продолжительность : 48 м. 23 с.
Битрейт : 1577 Кбит/сек
Ширина : 720 пикселей
Высота : 400 пикселей
Соотношение сторон : 16:9
Частота кадров : 25,000 кадров/сек
Цветовое пространство : YUV
Субдискретизация насыщенности : 4:2:0
Битовая глубина : 8 бит
Тип развёртки : Прогрессивная
Метод сжатия : С потерями
Бит/(Пиксели*Кадры) : 0.219
Размер потока : 546 Мбайт (85%)
Библиотека кодирования : XviD 73

Аудио
Идентификатор : 1
Формат : MPEG Audio
Версия формата : Version 1
Профиль формата : Layer 3
Режим : Joint stereo
Идентификатор кодека : 55
Идентификатор кодека/Подсказка : MP3
Продолжительность : 48 м. 23 с.
Вид битрейта : Постоянный
Битрейт : 192 Кбит/сек
Каналы : 2 канала
Частота : 48,0 КГц
Метод сжатия : С потерями
Размер потока : 66,4 Мбайт (10%)
Выравнивание : Соединение по промежуткам
Библиотека кодирования : LAME3.99r
Настройки программы : -m j -V 4 -q 2 -lowpass 18.6 -b 192

Когда раздача ведётся путём добавления новых серий, при каждом добавлении создётся новый торрент. Чтобы начать докачку новой серии, пользователям необходимо сделать следующее:
(1) остановить скачивание,
(2) удалить старый торрент у себя из клиента (старые серии удалять не надо),
(3) скачать новый торрент и запустить его у себя в клиенте вместо старого, при этом указать клиенту путь в старую папку, куда и должно происходить скачивание новых серий.
Ваш клиент при этом должен произвести хеширование (проверку) старой папки (если не производит сам - помогите ему сделать это), и будет докачивать только те серии, которых у вас ещё нет. Старые серии при этом не удаляются, а продолжают раздаваться!
Eсли вы уже удалили старые серии, то предотвратить повторную закачку старых серий можно, отжав галочку в соответсвующих местах при запуске нового торрента. По возможности, желательно не удалять старые серии как можно дольше, чтобы релизёр не столько продолжал раздавать старые серии, а смог сконцентрироваться на новых.
pb.wtf



Скачать Коп через торрент http://img10.lostpic.net/2019/05/27/b5b22e550b3886e948db3c91a9fbee95.jpg Скачать фильм Коп через торрент бесплантно в хорошем качестве Описание: За основу сюжета взят обмен опытом между отделами полиции РФ и США. Лейтенанта полиции Колю отправляют в Америку, где он в ... 10 10 4
Торрент: Зарегистрирован [2019-05-30 21:55] · скачан: 47 раз
Статус: √ проверено
Размер: 5.05 GB
Как cкачать? Как скачать Коп через торрент | qTorrent

% Раздел Тема Автор DL S | L
Наши сериалы [ 11.61 GB ] Учителя / Сезон: 1 / Серии: 1-8 из 8 [2014 Мело WEB-DL 1080p] bober100 Скачать
1 | 0
Наши сериалы [ 5.02 GB ] Коп / Сезон: 1 / Серии: 1-8 из 8 [2019 WEB-DLRip] bober100 Скачать
1 | 0
Наши сериалы [ 14.8 GB ] Коп / Сезон: 1 / Серии: 1-8 из 8 [2019 WEB-DL 1080p] bober100 Скачать
1 | 0
Наши сериалы [ 8.9 GB ] Коп / Сезон: 1 / Серии: 1-8 из 8 [2019 WEB-DL 720p] bober100 Скачать
1 | 0
Наши сериалы [ 6.04 GB ] Коп / Сезон: 1 / Серии: 1-8 из 8 [2019 HDTVRip-AVC] bober100 Скачать
1 | 0
Наши сериалы [ 10.17 GB ] Коп / Сезон: 1 / Серии: 1-8 из 8 [2019 HDTVRip 720p] bober100 Скачать
1 | 0
Наши сериалы [ 4.91 GB ] Коп / Сезон: 1 / Серии: 1-8 из 8 [2019 HDTVRip] bober100 Скачать
1 | 0


Последний раз редактировалось: bober100 (2019-05-30 21:55), всего редактировалось 5 раз(а)

28-11-2019 20:33  

Отключить всю рекламу на сайте

27-05-2019 12:30 Коп Скачать торрент  

По прочтении синопсиса "Копа" осталось впечатление, что аффторы сериала пробыли в анабиозе лет двадцать. И вот теперь, очнувшись, решил слепить нечто в стиле "мир, дружба, жвачка". С пиндосами, как понимаете. И это когда сейчас максимально свернуты все подобные программы сотрудничества и обмена. Как говорил в своё время "папаша Мюллер" в исполнении Броневого, маленькая ложь рождает большое недоверие. А тут даже не маленькая ложь, а концептуальный прокол. Жертвы ЕГЭ, скорее всего, сей опус проглотят не подавившись. Что касается людей взрослых... Ну, вы меня поняли.pb.wtf



31-05-2019 03:23 Коп Скачать торрент  

Странно, драконы и зомби в сериалах не смущают а америкос в россии удивил, это сериал а не документально публицистический фильм.pb.wtf



    Дорогой пользователь! Огромная просьба, поблагодарите релизера, оцените раздачу и оставьте свои комментарий, если Вы скачали Коп через торрент бесплатно! Внесите свою лепту в развитие PiratBit!
    Комментировать посты могут только пользователи прошедшие не сложную регистрацию
    Показать сообщения:    

    Коп через торрент
    Скачать бесплатно Коп
    Коп скачать торрент
    Коп смотреть онлайн
    Cкачать фильм Коп бесплатно
    Коп скачать торрент в хорошем качестве
    Коп смотреть онлайн бесплатно в хорошем качестве


    Вы не можете начинать темы
    Вы не можете отвечать на сообщения
    Вы не можете редактировать свои сообщения
    Вы не можете удалять свои сообщения
    Вы не можете голосовать в опросах
    Вы не можете прикреплять файлы к сообщениям
    Вы можете скачивать файлы