Доктор Стрэндж

Лицензия

Добыча

MVO

Дом дракона

1 сезон

Тор

Лицензия

Мэверик

Лицензия

Там, где раки поют

MVO

Властелин колец

1 сезон

Ultimate

pack

Рекомендуем

30

Repack

ВАЖНО

ВАЖНО

Ghostwire

RePack

jed

RePack

nioh2

RePack

RDR2

RePack

NEED FOR SPEED™ PAYBACK

RePack

скачать торрент

Кинопоиск HD

Острые козырьки 6 сезон

6 сезон

FAR CRY 6

RePack

скачать торрент

Лицензия

скачать торрент

MVO

1

1 сезон

скачать торрент

1 сезон

скачать торрент

Лицензия

  

Живая мина / Сезон: 1 / Серии: 1-10 из 10 (Михаил Кабанов (II) [2019, боевик, детектив, WEB-DLRip]

Живая мина через торрент pb.wtf

Размер: 6.83 GB | Добавлен: 3 года 4 мес. назад | Торрент скачан:101 раз
Смотреть онлайн | Скачать   

27-05-2019 20:01 Живая мина Скачать торрент  

Живая мина
Год выпуска: 2019
Страна: Россия
Жанр: боевик, детектив
Продолжительность: ~ 00:46:00
Перевод: Не требуется
Субтитры: отсутствуют

Режиссер: Михаил Кабанов (II)



В ролях:

Антон Васильев (III), Виктория Корлякова, Петар Зекавица, Александр Карпов (III), Арсений Робак, Мария Свирид, Святослав Астрамович, Виталий Ходин

Описание:

Владимир Фадеев жил по закону: «Фадеев всегда прав. Кто не прав – тот не Фадеев». Он был профессионалом своего дела. Ему были подвластны самые сложные взрывные устройства. Но однажды его самонадеянность сыграла с ним злую шутку. В Сирии, при разминировании автобуса с мирными жителями, он не учёл запасной взрыватель, и, после его команды «открыть двери», автобус взлетел на воздух. Фадеев навсегда запомнил лицо улыбающейся сирийской девушки из Красного Креста. Посттравматический синдром заставил его комиссоваться. Теперь он – выкинутый на обочину мирной жизни пьяница, подрабатывающий охранником. Но вот в музее, из которого его уволили за распитие спиртных напитков во время дежурства, происходит взрыв. И Фадеев вновь оказывается нужным: только он может понять, как действовал подрывник.

Качество: WEB-DLRip
Формат: AVI

Видео: XviD, ~ 1600 Кбит/с, 720x288, 720x304
Аудио: AC3, 2 ch, 192 Кбит/с
скриншот   скриншот   скриншот   скриншот   скриншот   скриншот   скриншот  
скриншот  

Общее
Полное имя : D:\Zhivaya.mina.(2018).WEB-DLRip.ExKinoRay\Zhivaya.mina.e01.(2018).WEB-DLRip.ExKinoRay.avi
Формат : AVI
Формат/Информация : Audio Video Interleave
Размер файла : 699 Мбайт
Продолжительность : 47 м. 10 с.
Общий поток : 2072 Кбит/сек
Программа кодирования : VirtualDubMod 1.5.10.2 (build 2540/release)
Библиотека кодирования : VirtualDubMod build 2540/release

Видео
Идентификатор : 0
Формат : MPEG-4 Visual
Профиль формата : Advanced [email protected]
Параметр BVOP формата : 1
Параметр QPel формата : Нет
Параметр GMC формата : Без точки перехода
Параметр матрицы формата : Выборочная
Идентификатор кодека : XVID
Идентификатор кодека/Подсказка : XviD
Продолжительность : 47 м. 10 с.
Битрейт : 1870 Кбит/сек
Ширина : 720 пикселей
Высота : 288 пикселей
Соотношение сторон : 2,500
Частота кадров : 25,000 кадров/сек
Цветовое пространство : YUV
Субдискретизация насыщенности : 4:2:0
Битовая глубина : 8 бит
Тип развёртки : Прогрессивная
Метод сжатия : С потерями
Бит/(Пиксели*Кадры) : 0.361
Размер потока : 631 Мбайт (90%)
Библиотека кодирования : XviD 73

Аудио
Идентификатор : 1
Формат : AC-3
Формат/Информация : Audio Coding 3
Расширение режима : CM (complete main)
Параметр Endianness формата : Big
Идентификатор кодека : 2000
Продолжительность : 47 м. 10 с.
Вид битрейта : Постоянный
Битрейт : 192 Кбит/сек
Каналы : 2 канала
Расположение каналов : Front: L R
Частота : 48,0 КГц
Частота кадров : 31,250 кадров/сек (1536 spf)
Метод сжатия : С потерями
Размер потока : 64,8 Мбайт (9%)
Выравнивание : Разделение по промежуткам
Продолжительность промежутка : 40 мс. (1,00 видеокадр)
Время предзагрузки промежутка : 500 мс.

Общее
Полное имя : D:\Zhivaya.mina.(2018).WEB-DLRip.ExKinoRay\Zhivaya.mina.e04.(2018).WEB-DLRip.ExKinoRay.avi
Формат : AVI
Формат/Информация : Audio Video Interleave
Размер файла : 699 Мбайт
Продолжительность : 47 м. 4 с.
Общий поток : 2077 Кбит/сек
Программа кодирования : VirtualDubMod 1.5.10.2 (build 2540/release)
Библиотека кодирования : VirtualDubMod build 2540/release

Видео
Идентификатор : 0
Формат : MPEG-4 Visual
Профиль формата : Advanced [email protected]
Параметр BVOP формата : 1
Параметр QPel формата : Нет
Параметр GMC формата : Без точки перехода
Параметр матрицы формата : Выборочная
Идентификатор кодека : XVID
Идентификатор кодека/Подсказка : XviD
Продолжительность : 47 м. 4 с.
Продолжительность оригинала : 45 м. 1 с.
Битрейт : 1879 Кбит/сек
Ширина : 720 пикселей
Высота : 304 пикселя
Соотношение сторон : 2,35:1
Частота кадров : 25,000 кадров/сек
Цветовое пространство : YUV
Субдискретизация насыщенности : 4:2:0
Битовая глубина : 8 бит
Тип развёртки : Прогрессивная
Метод сжатия : С потерями
Бит/(Пиксели*Кадры) : 0.343
Размер потока : 605 Мбайт (87%)
Библиотека кодирования : XviD 73

Аудио
Идентификатор : 1
Формат : AC-3
Формат/Информация : Audio Coding 3
Расширение режима : CM (complete main)
Параметр Endianness формата : Big
Идентификатор кодека : 2000
Продолжительность : 47 м. 4 с.
Продолжительность оригинала : 45 м. 1 с.
Вид битрейта : Постоянный
Битрейт : 192 Кбит/сек
Каналы : 2 канала
Расположение каналов : Front: L R
Частота : 48,0 КГц
Частота кадров : 31,250 кадров/сек (1536 spf)
Метод сжатия : С потерями
Размер потока : 61,8 Мбайт (9%)
Выравнивание : Разделение по промежуткам
Продолжительность промежутка : 40 мс. (1,00 видеокадр)
Время предзагрузки промежутка : 500 мс.

Когда раздача ведётся путём добавления новых серий, при каждом добавлении создётся новый торрент. Чтобы начать докачку новой серии, пользователям необходимо сделать следующее:
(1) остановить скачивание,
(2) удалить старый торрент у себя из клиента (старые серии удалять не надо),
(3) скачать новый торрент и запустить его у себя в клиенте вместо старого, при этом указать клиенту путь в старую папку, куда и должно происходить скачивание новых серий.
Ваш клиент при этом должен произвести хеширование (проверку) старой папки (если не производит сам - помогите ему сделать это), и будет докачивать только те серии, которых у вас ещё нет. Старые серии при этом не удаляются, а продолжают раздаваться!
Eсли вы уже удалили старые серии, то предотвратить повторную закачку старых серий можно, отжав галочку в соответсвующих местах при запуске нового торрента. По возможности, желательно не удалять старые серии как можно дольше, чтобы релизёр не столько продолжал раздавать старые серии, а смог сконцентрироваться на новых.



Скачать Живая мина через торрент https://i110.fastpic.ru/big/2019/0527/26/2bae82ec9e06f49a41bafa3e1a583b26.jpg Скачать, смотреть онлайн Живая мина бесплантно в хорошем качестве Описание: Владимир Фадеев жил по закону: «Фадеев всегда прав. Кто не прав – тот не Фадеев». Он был профессионалом своего дела. Ему были ... 9.9 10 8
Торрент: Зарегистрирован [2019-06-01 00:24] · скачан: 101 раз
Статус: √ проверено
Размер: 6.83 GB
Как cкачать? Как скачать Живая мина через торрент | UTorrent

% Раздел Тема Автор DL S | L
Фильмы с авторской озвучкой [ 10.53 GB ] Женщины за решёткой 2 / Chained Heat II | AVO | 1080p Леонид Ильич Скачать
1 | 0
Наши сериалы [ 7.35 GB ] Живая мина / Сезон: 1 / Серии: 1-10 из 10 | | WEBRip-AVC bober100 Скачать
1 | 0
Наши сериалы [ 14.06 GB ] Живая мина / Сезон: 1 / Серии: 1-10 из 10 | | 720p bober100 Скачать
1 | 0
Наши сериалы [ 20.61 GB ] Живая мина / Сезон: 1 / Серии: 1-10 из 10 | | 1080p bober100 Скачать
1 | 0
Наши сериалы [ 6.08 GB ] Живая мина / Сезон: 1 / Серии: 1-10 из 10 | | SATRip bober100 Скачать
1 | 0

28-11-2019 20:33  


Отключить вcю реклaмy на сайте, в т.ч. и в плеере онлайн просмотра!

    Дорогой пользователь! Огромная просьба, поблагодарите релизера, оцените раздачу и оставьте свои комментарий, если Вы скачали Живая мина через торрент бесплатно!!
    Комментировать посты могут только пользователи прошедшие не сложную регистрацию
    Показать сообщения:    


    Живая мина через торрент
    Скачать бесплатно Живая мина
    Живая мина скачать торрент
    Живая мина смотреть онлайн
    Cкачать фильм Живая мина бесплатно
    Живая мина скачать торрент в хорошем качестве
    Живая мина смотреть онлайн бесплатно в хорошем качестве
    Вы не можете начинать темы
    Вы не можете отвечать на сообщения
    Вы не можете редактировать свои сообщения
    Вы не можете удалять свои сообщения
    Вы не можете голосовать в опросах
    Вы не можете прикреплять файлы к сообщениям
    Вы можете скачивать файлы