2 сезон

iTunes

1 сезон

1

iTunes

iTunes

iTunes

1 сезон

RePack

30

ИГРА 18+

pack

ВАЖНО

!!Акция!!

Alien_RageХит недели

RePack

MK11
pack

Забери бонус

RePack

jed

!!Акция!!

Alien_Rage

RePack

fifa19

RePack

Assassins Creed: Odyssey

RePack

NEED FOR SPEED™ PAYBACK

4 сезон

9 сезон

Бесстыжие 9 сезон

Все сериалы

все сериалы на PB.wtf

RePack

FAR CRY 5
  

Живая мина / Сезон: 1 / Серии: 1-10 из 10 (Михаил Кабанов (II) [2019, боевик, детектив, WEB-DL 1080p] pb.wtf

Живая мина через торрент pb.wtf

Размер: 20.61 GB | Добавлен: 1 год 4 мес. назад | Торрент скачан:39 раз
Скачать  

27-05-2019 20:05 Живая мина Скачать торрент  

Живая мина
Год выпуска: 2019
Страна: Россия
Жанр: боевик, детектив
Продолжительность: ~ 00:46:00
Перевод: Не требуется
Субтитры: отсутствуют

Режиссер: Михаил Кабанов (II)



В ролях:

Антон Васильев (III), Виктория Корлякова, Петар Зекавица, Александр Карпов (III), Арсений Робак, Мария Свирид, Святослав Астрамович, Виталий Ходин

Описание:

Владимир Фадеев жил по закону: «Фадеев всегда прав. Кто не прав – тот не Фадеев». Он был профессионалом своего дела. Ему были подвластны самые сложные взрывные устройства. Но однажды его самонадеянность сыграла с ним злую шутку. В Сирии, при разминировании автобуса с мирными жителями, он не учёл запасной взрыватель, и, после его команды «открыть двери», автобус взлетел на воздух. Фадеев навсегда запомнил лицо улыбающейся сирийской девушки из Красного Креста. Посттравматический синдром заставил его комиссоваться. Теперь он – выкинутый на обочину мирной жизни пьяница, подрабатывающий охранником. Но вот в музее, из которого его уволили за распитие спиртных напитков во время дежурства, происходит взрыв. И Фадеев вновь оказывается нужным: только он может понять, как действовал подрывник.

Качество: WEB-DL 1080p
Формат: MKV

Видео: 1920х1080 (16:9), 25 fps, AVC MPEG-4 (x264), High@L4.0 ~ 6000 kbps avg, 0.152 bit/pixel
Аудио: 48 kHz, AC3, 2 ch, ~ 192 kbps avg
скриншот  скриншот  скриншот  скриншот  

Общее
Уникальный идентификатор : 237989583739843347131079621480590543711 (0xB30B2067651BB1DEA09EB2B0A1230B5F)
Полное имя : C:\Zhivaya.mina.2018.WEB-DL.(1080p).ExKinoRay\Zhivaya.mina.(01.seriya).2018.WEB-DL.(1080p).ExKinoRay.mkv
Формат : Matroska
Версия формата : Version 4
Размер файла : 2,02 Гбайт
Продолжительность : 47 м. 10 с.
Режим общего битрейта : Постоянный
Общий поток : 6141 Кбит/сек
Дата кодирования : UTC 2019-05-26 17:49:07
Программа кодирования : mkvmerge v7.8.0 ('River Man') 32bit built on Mar 27 2015 16:18:02
Библиотека кодирования : libebml v1.3.1 + libmatroska v1.4.2

Видео
Идентификатор : 1
Формат : AVC
Формат/Информация : Advanced Video Codec
Профиль формата : High@L4.1
Настройки формата : 2 Ref Frames
Параметр CABAC формата : Нет
Параметр RefFrames формата : 2 кадра
Идентификатор кодека : V_MPEG4/ISO/AVC
Продолжительность : 47 м. 10 с.
Вид битрейта : Постоянный
Битрейт : 6000 Кбит/сек
Ширина : 1920 пикселей
Высота : 1080 пикселей
Соотношение сторон : 16:9
Режим частоты кадров : Постоянный
Частота кадров : 25,000 кадров/сек
Стандарт вещания : PAL
Цветовое пространство : YUV
Субдискретизация насыщенности : 4:2:0
Битовая глубина : 8 бит
Тип развёртки : Прогрессивная
Бит/(Пиксели*Кадры) : 0.116
Размер потока : 1,96 Гбайт (97%)
Default : Да
Forced : Нет
Цветовой диапазон : Limited
Основные цвета : BT.709
Характеристики трансфера : BT.709
Коэффициенты матрицы : BT.709

Аудио
Идентификатор : 2
Формат : AC-3
Формат/Информация : Audio Coding 3
Коммерческое название : Dolby Digital
Идентификатор кодека : A_AC3
Продолжительность : 47 м. 10 с.
Вид битрейта : Постоянный
Битрейт : 192 Кбит/сек
Каналы : 2 канала
ChannelLayout : L R
Частота : 48,0 КГц
Частота кадров : 31,250 кадров/сек (1536 SPF)
Битовая глубина : 16 бит
Метод сжатия : С потерями
Размер потока : 64,8 Мбайт (3%)
Язык : Russian
ServiceKind/String : Complete Main
Default : Да
Forced : Нет

Когда раздача ведётся путём добавления новых серий, при каждом добавлении создётся новый торрент. Чтобы начать докачку новой серии, пользователям необходимо сделать следующее:
(1) остановить скачивание,
(2) удалить старый торрент у себя из клиента (старые серии удалять не надо),
(3) скачать новый торрент и запустить его у себя в клиенте вместо старого, при этом указать клиенту путь в старую папку, куда и должно происходить скачивание новых серий.
Ваш клиент при этом должен произвести хеширование (проверку) старой папки (если не производит сам - помогите ему сделать это), и будет докачивать только те серии, которых у вас ещё нет. Старые серии при этом не удаляются, а продолжают раздаваться!
Eсли вы уже удалили старые серии, то предотвратить повторную закачку старых серий можно, отжав галочку в соответсвующих местах при запуске нового торрента. По возможности, желательно не удалять старые серии как можно дольше, чтобы релизёр не столько продолжал раздавать старые серии, а смог сконцентрироваться на новых.
pb.wtf



Скачать Живая мина через торрент http://img10.lostpic.net/2019/05/27/9fb9703a513db2e0081abeb874e361a0.jpg Скачать фильм Живая мина через торрент бесплантно в хорошем качестве Описание: Владимир Фадеев жил по закону: «Фадеев всегда прав. Кто не прав – тот не Фадеев». Он был профессионалом своего дела. Ему были ... 10 10 4
Торрент: Зарегистрирован [2019-06-01 00:55] · скачан: 39 раз
Статус: √ проверено
Размер: 20.61 GB
Как cкачать? Как скачать Живая мина через торрент | qTorrent

% Раздел Тема Автор DL S | L
Наши сериалы [ 7.35 GB ] Живая мина / Сезон: 1 / Серии: 1-10 из 10 [2019 WEBRip-AVC] bober100 Скачать
1 | 0
Наши сериалы [ 14.06 GB ] Живая мина / Сезон: 1 / Серии: 1-10 из 10 [2019 WEB-DL 720p] bober100 Скачать
1 | 0
Наши сериалы [ 6.83 GB ] Живая мина / Сезон: 1 / Серии: 1-10 из 10 [2019 WEB-DLRip] bober100 Скачать
1 | 0
Наши сериалы [ 6.08 GB ] Живая мина / Сезон: 1 / Серии: 1-10 из 10 [2019 SATRip] bober100 Скачать
1 | 0
Зарубежные сериалы [ 13.54 GB ] Живая мишень / Human Target [2010 -2011 / / / WEBDLRip-AVC Многоголосый Cтудии "Kravec"] Baranov55 Скачать
1 | 0

28-11-2019 20:33  

Отключить всю рекламу на сайте

    Дорогой пользователь! Огромная просьба, поблагодарите релизера, оцените раздачу и оставьте свои комментарий, если Вы скачали Живая мина через торрент бесплатно! Внесите свою лепту в развитие PiratBit!
    Комментировать посты могут только пользователи прошедшие не сложную регистрацию
    Показать сообщения:    

    Живая мина через торрент
    Скачать бесплатно Живая мина
    Живая мина скачать торрент
    Живая мина смотреть онлайн
    Cкачать фильм Живая мина бесплатно
    Живая мина скачать торрент в хорошем качестве
    Живая мина смотреть онлайн бесплатно в хорошем качестве


    Вы не можете начинать темы
    Вы не можете отвечать на сообщения
    Вы не можете редактировать свои сообщения
    Вы не можете удалять свои сообщения
    Вы не можете голосовать в опросах
    Вы не можете прикреплять файлы к сообщениям
    Вы можете скачивать файлы