Ссылка на приватное зеркало нашего сайта всего за 1$. Внимание количество ограничено!!!

2 сезон

iTunes

1 сезон

1

2 сезон

2 сезон

iTunes

1 сезон

RePack

30

Ultimate

ВАЖНО

ИГРА 18+

pack

RePack

MK11
pack

Забери бонус

RePack

jed

!!Акция!!

Alien_Rage

RePack

fifa19

RePack

Assassins Creed: Odyssey

RePack

NEED FOR SPEED™ PAYBACK

4 сезон

9 сезон

Бесстыжие 9 сезон

Все сериалы

все сериалы на PB.wtf

RePack

FAR CRY 5
  

Болден! / Bolden (Дэн Притцкер) [2019, драма, биография, музыка, WEB-DL 1080p] MVO [HDRezka Studio] pb.wtf

Болден! через торрент pb.wtf

Размер: 4.01 GB | Добавлен: 1 год 6 мес. назад | Торрент скачан:20 раз
Скачать  

28-05-2019 04:50 Болден! Скачать торрент  

Болден! / Bolden Год выпуска: 2019
Страна: США
Жанр: драма, биография, музыка
Продолжительность: 01:41:43
Перевод: Профессиональный (многоголосый) | HDRezka Studio
Субтитры: английские

Режиссер: Дэн Притцкер

rating

В ролях:

Гари Карр, Эрик Ларей Харви, Иэн Макшейн, Майкл Рукер, Йайа ДаКоста, Рено Уилсон, Роберт Ричард, Карима Уэстбрук, ДжоНелл Кеннеди

Описание:

Повествование о жизни легендарного Чарльза «Бадди» Болдена, афроамериканского корнет-короля Нового Орлеана...

Качество: WEB-DL 1080p
Формат: MKV

Видео: 1920x1038 (1.85:1), 23.976 fps, MPEG-4 AVC ~5 067 kbps avg
Аудио#1: 48.0 kHz, AC3 Dolby Digital, 2/0 (L,R) ch, ~192 kbps | RUS / HDRezka Studio
Аудио#2: 48.0 kHz, AC3 Dolby Digital, 3/2 (L,C,R,l,r) + LFE ch, ~384 kbps | ENG
скриншот  скриншот  скриншот  

General
Unique ID : 331107554696557647800197430722493419017 (0xF918FED52CD1ABA65621A51D7DD80E09)
Complete name : Bolden.2019.WEB-DL.1080p.mkv
Format : Matroska
Format version : Version 4 / Version 2
File size : 4.01 GiB
Duration : 1 h 41 min
Overall bit rate : 5 645 kb/s
Encoded date : UTC 2019-05-27 12:19:33
Writing application : mkvmerge v20.0.0 ('I Am The Sun') 64-bit
Writing library : libebml v1.3.5 + libmatroska v1.4.8

Video
ID : 1
Format : AVC
Format/Info : Advanced Video Codec
Format profile : High@L4
Format settings : CABAC / 4 Ref Frames
Format settings, CABAC : Yes
Format settings, RefFrames : 4 frames
Codec ID : V_MPEG4/ISO/AVC
Duration : 1 h 41 min
Bit rate : 5 067 kb/s
Width : 1 920 pixels
Height : 1 038 pixels
Display aspect ratio : 1.85:1
Frame rate mode : Constant
Frame rate : 23.976 (24000/1001) FPS
Color space : YUV
Chroma subsampling : 4:2:0
Bit depth : 8 bits
Scan type : Progressive
Bits/(Pixel*Frame) : 0.106
Stream size : 3.60 GiB (90%)
Language : English
Default : Yes
Forced : No
Color range : Limited
Color primaries : BT.709
Transfer characteristics : BT.709
Matrix coefficients : BT.709

Audio #1
ID : 2
Format : AC-3
Format/Info : Audio Coding 3
Codec ID : A_AC3
Duration : 1 h 41 min
Bit rate mode : Constant
Bit rate : 192 kb/s
Channel(s) : 2 channels
Channel positions : Front: L R
Sampling rate : 48.0 kHz
Frame rate : 31.250 FPS (1536 SPF)
Bit depth : 16 bits
Compression mode : Lossy
Stream size : 140 MiB (3%)
Title : MVO HDRezka Studio
Language : Russian
Service kind : Complete Main
Default : Yes
Forced : No

Audio #2
ID : 3
Format : AC-3
Format/Info : Audio Coding 3
Codec ID : A_AC3
Duration : 1 h 41 min
Bit rate mode : Constant
Bit rate : 384 kb/s
Channel(s) : 6 channels
Channel positions : Front: L C R, Side: L R, LFE
Sampling rate : 48.0 kHz
Frame rate : 31.250 FPS (1536 SPF)
Bit depth : 16 bits
Compression mode : Lossy
Stream size : 279 MiB (7%)
Language : English
Service kind : Complete Main
Default : No
Forced : No

Text
ID : 4
Format : UTF-8
Codec ID : S_TEXT/UTF8
Codec ID/Info : UTF-8 Plain Text
Duration : 1 h 26 min
Bit rate : 32 b/s
Count of elements : 679
Stream size : 20.8 KiB (0%)
Language : English
Default : No
Forced : No

Menu
00:00:00.000 : en:1
00:15:00.000 : en:2
00:30:00.000 : en:3
00:45:00.000 : en:4
01:00:00.000 : en:5
01:15:00.000 : en:6
01:30:00.000 : en:7

pb.wtf



Скачать Болден! через торрент http://c.radikal.ru/c32/1905/83/4941497157c4.jpg Скачать фильм Болден! через торрент бесплантно в хорошем качестве Описание: Повествование о жизни легендарного Чарльза «Бадди» Болдена, афроамериканского корнет-короля Нового ... 10 10 4
Торрент: Зарегистрирован [2019-05-28 04:50] · скачан: 20 раз
Статус: T временная
Размер: 4.01 GB
Как cкачать? Как скачать Болден! через торрент | qTorrent

28-11-2019 20:33  

Отключить всю рекламу на сайте

    Дорогой пользователь! Огромная просьба, поблагодарите релизера, оцените раздачу и оставьте свои комментарий, если Вы скачали Болден! через торрент бесплатно! Внесите свою лепту в развитие PiratBit!
    Комментировать посты могут только пользователи прошедшие не сложную регистрацию
    Показать сообщения:    

    Болден! через торрент
    Скачать бесплатно Болден!
    Болден! скачать торрент
    Болден! смотреть онлайн
    Cкачать фильм Болден! бесплатно
    Болден! скачать торрент в хорошем качестве
    Болден! смотреть онлайн бесплатно в хорошем качестве


    Вы не можете начинать темы
    Вы не можете отвечать на сообщения
    Вы не можете редактировать свои сообщения
    Вы не можете удалять свои сообщения
    Вы не можете голосовать в опросах
    Вы не можете прикреплять файлы к сообщениям
    Вы можете скачивать файлы