Ссылка на приватное зеркало нашего сайта всего за 1$. Внимание количество ограничено!!!

2 сезон

iTunes

1 сезон

1

2 сезон

2 сезон

iTunes

1 сезон

RePack

30

Ultimate

ВАЖНО

ИГРА 18+

pack

RePack

MK11
pack

Забери бонус

RePack

jed

!!Акция!!

Alien_Rage

RePack

fifa19

RePack

Assassins Creed: Odyssey

RePack

NEED FOR SPEED™ PAYBACK

4 сезон

9 сезон

Бесстыжие 9 сезон

Все сериалы

все сериалы на PB.wtf

RePack

FAR CRY 5
  

Кровь и сокровища / Blood & Treasure / Сезон: 1 / Серии: 1-13 из 13 (Гай Норман Би, Стив Бойум, Холли Дэйл) [2019, боевик, приключения, WEB-DL 720p] [MVO] (Jaskier) pb.wtf

Кровь и сокровища через торрент pb.wtf

Размер: 15.97 GB | Добавлен: 1 год 3 мес. назад | Торрент скачан:9 раз
Скачать  

28-05-2019 06:17 Кровь и сокровища Скачать торрент  

Кровь и сокровища | Blood & Treasure
Год выпуска: 2019
Страна: США
Жанр: боевик, приключения
Продолжительность: ~ 00:50:00
Перевод: Профессиональный (многоголосый закадровый) | Jaskier
Режиссёр: Гай Норман Би, Стив Бойум, Холли Дэйл
В ролях: София Пернас, Мэтт Барр, Катя Винтер, Антонио Цупо, Майкл Джеймс Шоу, Джеймс Кэллис, Алисия Коппола, Карл Грабошас, Эйт Бен Аззуоз Брахим и др.
Описание: Дэнни Макнамара - бывший агент ФБР, специализирующийся розыске древних предметов искусства. Лекси Вазири - талантливый вор мира искусства, страдающая от трагической потери отца, в которой она обвиняет Дэнни. Агент нанимает ее, чтобы поймать загадочного террориста Фарука, финансирующего свои операции на деньги от краденных драгоценностей. Дэнни и Лекси помогает отец Чак, друг детства Дэнни, который работает в министерстве иностранных дел Ватикана в Риме. Во время охоты за своей целью, напарники неожиданно оказываются в центре 2000-летней битвы за колыбель цивилизации.

Качество: WEB-DL 720p
Формат: MKV
Видео: 1280x720 (16:9) | X264/MPEG4-AVC | ~3300 kbps | 24 fps
Аудио 1: AC3 | 48 KHz | 5.1 (Front: L С R Side: L R) + LFE | ~384 kbps [RUS]
Аудио 2: AC3 | 48 KHz | 5.1 (Front: L С R Side: L R) + LFE | ~384 kbps [ENG]
Субтитры: английские
Переведено и озвучено: студией Jaskier

Код:

Общее
Уникальный идентификатор                 : 211214262486701042349834564317679869519 (0x9EE66324D04557B1A9C0D9D0C81A5E4F)
Полное имя                               : G:\Загрузки\Blood.And.Treasure.S01E01E02.720p.WEB-DL.DD5.1.H.264-Jaskier.mkv
Формат                                   : Matroska
Версия формата                           : Version 2
Размер файла                             : 2,39 Гбайт
Продолжительность                        : 1 ч. 23 м.
Общий поток                              : 4068 Кбит/сек
Дата кодирования                         : UTC 2019-05-24 11:09:58
Программа кодирования                    : mkvmerge v7.8.0 ('River Man') 32bit built on Apr  3 2015 12:11:22
Библиотека кодирования                   : libebml v1.3.1 + libmatroska v1.4.2

Видео
Идентификатор                            : 1
Формат                                   : AVC
Формат/Информация                        : Advanced Video Codec
Профиль формата                          : High@L3.1
Настройки формата                        : CABAC / 5 Ref Frames
Параметр CABAC формата                   : Да
Параметр RefFrames формата               : 5 кадров
Идентификатор кодека                     : V_MPEG4/ISO/AVC
Продолжительность                        : 1 ч. 23 м.
Битрейт                                  : 3219 Кбит/сек
Ширина                                   : 1280 пикселей
Высота                                   : 720 пикселей
Соотношение сторон                       : 16:9
Режим частоты кадров                     : Постоянный
Частота кадров                           : 24,000 кадра/сек
Цветовое пространство                    : YUV
Субдискретизация насыщенности            : 4:2:0
Битовая глубина                          : 8 бит
Тип развёртки                            : Прогрессивная
Бит/(Пиксели*Кадры)                      : 0.146
Размер потока                            : 1,89 Гбайт (79%)
Язык                                     : English
Default                                  : Да
Forced                                   : Нет
Цветовой диапазон                        : Limited
Основные цвета                           : BT.709
Характеристики трансфера                 : BT.709
Коэффициенты матрицы                     : BT.709

Аудио #1
Идентификатор                            : 2
Формат                                   : AC-3
Формат/Информация                        : Audio Coding 3
Коммерческое название                    : Dolby Digital
Идентификатор кодека                     : A_AC3
Продолжительность                        : 1 ч. 23 м.
Вид битрейта                             : Постоянный
Битрейт                                  : 384 Кбит/сек
Каналы                                   : 6 каналов
Channel layout                           : L R C LFE Ls Rs
Частота                                  : 48,0 КГц
Частота кадров                           : 31,250 кадров/сек (1536 SPF)
Битовая глубина                          : 16 бит
Метод сжатия                             : С потерями
Размер потока                            : 231 Мбайт (9%)
Заголовок                                : Jaskier
Язык                                     : Russian
ServiceKind/String                       : Complete Main
Default                                  : Да
Forced                                   : Нет

Аудио #2
Идентификатор                            : 3
Формат                                   : AC-3
Формат/Информация                        : Audio Coding 3
Коммерческое название                    : Dolby Digital
Идентификатор кодека                     : A_AC3
Продолжительность                        : 1 ч. 23 м.
Вид битрейта                             : Постоянный
Битрейт                                  : 384 Кбит/сек
Каналы                                   : 6 каналов
Channel layout                           : L R C LFE Ls Rs
Частота                                  : 48,0 КГц
Частота кадров                           : 31,250 кадров/сек (1536 SPF)
Битовая глубина                          : 16 бит
Метод сжатия                             : С потерями
Размер потока                            : 231 Мбайт (9%)
Язык                                     : English
ServiceKind/String                       : Complete Main
Default                                  : Нет
Forced                                   : Нет

Текст
Идентификатор                            : 4
Формат                                   : UTF-8
Идентификатор кодека                     : S_TEXT/UTF8
Идентификатор кодека/Информация          : UTF-8 Plain Text
Язык                                     : English
Default                                  : Нет
Forced                                   : Нет

скриншот  скриншот  скриншот  
Когда раздача ведётся путём добавления новых серий, при каждом добавлении создётся новый торрент. Чтобы начать докачку новой серии, пользователям необходимо сделать следующее:
(1) остановить скачивание,
(2) удалить старый торрент у себя из клиента (старые серии удалять не надо),
(3) скачать новый торрент и запустить его у себя в клиенте вместо старого, при этом указать клиенту путь в старую папку, куда и должно происходить скачивание новых серий.
Ваш клиент при этом должен произвести хеширование (проверку) старой папки (если не производит сам - помогите ему сделать это), и будет докачивать только те серии, которых у вас ещё нет. Старые серии при этом не удаляются, а продолжают раздаваться!
Eсли вы уже удалили старые серии, то предотвратить повторную закачку старых серий можно, отжав галочку в соответсвующих местах при запуске нового торрента. По возможности, желательно не удалять старые серии как можно дольше, чтобы релизёр не столько продолжал раздавать старые серии, а смог сконцентрироваться на новых.

pb.wtf



Скачать Кровь и сокровища через торрент http://img14.lostpic.net/2019/05/23/2820076895d2329c5fb8f23d6053b67a.png Скачать фильм Кровь и сокровища через торрент бесплантно в хорошем качестве Описание: Дэнни Макнамара - бывший агент ФБР, специализирующийся розыске древних предметов искусства. Лекси Вазири - талантливый вор мира ... 9.6 10 9
Info! Золотая раздача, скачанное не засчитывается.
Торрент: Зарегистрирован [2019-08-09 15:45] · скачан: 9 раз
Статус: √ проверено
Размер: 15.97 GB
Как cкачать? Как скачать Кровь и сокровища через торрент | qTorrent

28-11-2019 20:33  

Отключить всю рекламу на сайте

    Дорогой пользователь! Огромная просьба, поблагодарите релизера, оцените раздачу и оставьте свои комментарий, если Вы скачали Кровь и сокровища через торрент бесплатно! Внесите свою лепту в развитие PiratBit!
    Комментировать посты могут только пользователи прошедшие не сложную регистрацию
    Показать сообщения:    

    Кровь и сокровища через торрент
    Скачать бесплатно Кровь и сокровища
    Кровь и сокровища скачать торрент
    Кровь и сокровища смотреть онлайн
    Cкачать фильм Кровь и сокровища бесплатно
    Кровь и сокровища скачать торрент в хорошем качестве
    Кровь и сокровища смотреть онлайн бесплатно в хорошем качестве


    Вы не можете начинать темы
    Вы не можете отвечать на сообщения
    Вы не можете редактировать свои сообщения
    Вы не можете удалять свои сообщения
    Вы не можете голосовать в опросах
    Вы не можете прикреплять файлы к сообщениям
    Вы можете скачивать файлы