новый адрес
Мега распродажа FORZA HORIZON 4 ULTIMATE+ВСЕ DLC+ОНЛАЙН всего за 499р. 349 руб. (супер цена). Внимание количество ограничено!!!

iTunes

1+1

iTunes

мы

iTunes

1

iTunes

Чернобыль

iTunes

Ральф против интернета

Лицензия

ПШазам

Лицензия

Игра престолов

Лицензия

30
pack

ВАЖНО

!!Акция!!

Alien_RageХит недели

RePack

Resident Evil 21

ИГРА 18+

pack

RePack

Metro:Exodus

!!Акция!!

Alien_Rage

RePack

fifa19

RePack

Assassins Creed: Odyssey

RePack

NEED FOR SPEED™ PAYBACK

3 сезон

9 сезон

Бесстыжие 9 сезон

Все сериалы

все сериалы на PB.wtf

RePack

FAR CRY 5
Ребята, катастрофически не хватает 1900р. для оплаты серверов за Октябрь (всвязи с блокировками трафик упал в 3 раза), 1-2р., выручайте.
  

Позвоните Мышкину (Илья Казанков) [2018 г., комедия, WEB-DLRip, Не требуется "Русский"] pb.wtf

Позвоните Мышкину через торрент pb.wtf

Размер: 708 MB | Добавлен: 5 мес. 21 д. назад | Торрент скачан:56 раз
Скачать  

28-05-2019 18:59 Позвоните Мышкину Скачать торрент  

Позвоните Мышкину
Год выпуска: 2018
Страна: Россия
Жанр: комедия
Продолжительность: 01:24:38
Перевод: Не требуется Русский

Режиссер: Илья Казанков



В ролях: Михаил Трухин, Ярослава Базаева, Ирина Пегова, Михаил Пореченков, Иван Ефремов, Василий Юркевич, Маша Уросова, Полина Руденко, Елена Валюшкина, Игорь Юдин

Описание: Ермак Мышкин - крайне неуверенный в себе человек, который всю жизнь хотел стать актёром. Помочь в исполнении его мечты берётся 8-летняя девочка Даша, которая преследует и свои цели: ей очень хочется выйти из тени своей звёздной мамы, ведь та не обращает на дочь никакого внимания. Даша предлагает Ермаку отправиться из Петербурга в Москву на кастинг нового мюзикла, при этом "путешествие" должно выглядеть так, будто Ермак похитил девочку...

Качество: WEB-DLRip
Формат: AVI
Видео кодек: XviD
Аудио кодек: MP3
Видео: 640x344 (1.86:1), 24.000 fps, XviD build 50 ~1032 kbps avg, 0.20 bit/pixel
Аудио: 48 kHz, MPEG Layer 3, 2 ch, ~128.00 kbps avg
скриншот   скриншот   скриншот   скриншот  

Общее
Полное имя : F:\ФИЛЬМЫ\ Позвоните Мышкину.2018.WEB-DLRip.avi
Формат : AVI
Формат/Информация : Audio Video Interleave
Размер файла : 708 Мбайт
Продолжительность : 1 ч. 24 м.
Общий поток : 1170 Кбит/сек
Программа кодирования : VirtualDubMod 1.5.10.3 | www.virtualdub-fr.org || (build 2550/release)
Библиотека кодирования : VirtualDubMod build 2550/release

Видео
Идентификатор : 0
Формат : MPEG-4 Visual
Профиль формата : Advanced Simple@L5
Настройки формата : BVOP3 / GMC3 / QPel
Параметр BVOP формата : 3
Параметр QPel формата : Да
Параметр GMC формата : 3 точки перехода
Параметр матрицы формата : Default (MPEG)
Идентификатор кодека : XVID
Идентификатор кодека/Подсказка : XviD
Продолжительность : 1 ч. 24 м.
Битрейт : 1033 Кбит/сек
Ширина : 640 пикселей
Высота : 344 пикселя
Соотношение сторон : 1,85:1
Частота кадров : 24,000 кадра/сек
Цветовое пространство : YUV
Субдискретизация насыщенности : 4:2:0
Битовая глубина : 8 бит
Тип развёртки : Прогрессивная
Метод сжатия : С потерями
Бит/(Пиксели*Кадры) : 0.195
Размер потока : 625 Мбайт (88%)
Библиотека кодирования : XviD 1.2.1 (UTC 2008-12-04)

Аудио
Идентификатор : 1
Формат : MPEG Audio
Версия формата : Version 1
Профиль формата : Layer 3
Настройки формата : Joint stereo / MS Stereo
Идентификатор кодека : 55
Идентификатор кодека/Подсказка : MP3
Продолжительность : 1 ч. 24 м.
Вид битрейта : Постоянный
Битрейт : 128 Кбит/сек
Каналы : 2 канала
Частота : 48,0 КГц
Частота кадров : 41,667 кадра/сек (1152 SPF)
Метод сжатия : С потерями
Размер потока : 77,5 Мбайт (11%)
Выравнивание : Соединение по промежуткам
Продолжительность промежутка : 42 мс. (1,00 видеокадр)
Время предзагрузки промежутка : 504 мс.
Библиотека кодирования : LAME3.99r
Настройки программы : -m j -V 4 -q 2 -lowpass 17 -b 128

pb.wtf



Скачать Позвоните Мышкину через торрент http://pic1.kartinco.top/images/12/68ffi.jpg Скачать фильм Позвоните Мышкину через торрент бесплантно в хорошем качестве Описание: Ермак Мышкин - крайне неуверенный в себе человек, который всю жизнь хотел стать актёром. Помочь в исполнении его мечты берётся ... 7.3 10 3
Торрент: Зарегистрирован [2019-05-28 18:59] · скачан: 56 раз
Статус: √ проверено
Размер: 708 MB
Как cкачать? Как скачать Позвоните Мышкину через торрент | qTorrent

% Раздел Тема Автор DL S | L
Наши новые фильмы 2018-2019 [ 1.46 GB ] Позвоните Мышкину [2018 WEB-DLRip] killermax2013 Скачать
2 | 0
Наши фильмы (HD, WEB-DL 720p, 1080p) [ 3.28 GB ] Позвоните Мышкину [2018 WEB-DL 1080p] bober100 Скачать
1 | 0
T Наши фильмы (мультфильмы) cо спонсором показа (Новинки AVI/MKV) [ 3.03 GB ] Позвоните Мышкину [2018 WEB-DL 720p] [Line] bober100 Скачать
1 | 0
T Наши фильмы (мультфильмы) cо спонсором показа (Новинки AVI/MKV) [ 1.37 GB ] Позвоните Мышкину [2018 WEB-DLRip] [Line] bober100 Скачать
1 | 0


>> Регистрируемся здесь <<






Отзывы и комментарии о схеме читаем и пишем здесь: ---> Отзывы и комментарии о схеме

Новые благодарочки в телеграм довольных пользователей:
скриншот   скриншот   скриншот   скриншот   скриншот
    Дорогой пользователь! Огромная просьба, поблагодарите релизера, оцените раздачу и оставьте свои комментарий, если Вы скачали Позвоните Мышкину через торрент бесплатно! Внесите свою лепту в развитие PiratBit!
    Комментировать посты могут только пользователи прошедшие не сложную регистрацию
    Показать сообщения:    

    Позвоните Мышкину через торрент
    Скачать бесплатно Позвоните Мышкину
    Позвоните Мышкину скачать торрент
    Позвоните Мышкину смотреть онлайн
    Cкачать фильм Позвоните Мышкину бесплатно
    Позвоните Мышкину скачать торрент в хорошем качестве
    Позвоните Мышкину смотреть онлайн бесплатно в хорошем качестве


    Вы не можете начинать темы
    Вы не можете отвечать на сообщения
    Вы не можете редактировать свои сообщения
    Вы не можете удалять свои сообщения
    Вы не можете голосовать в опросах
    Вы не можете прикреплять файлы к сообщениям
    Вы можете скачивать файлы