Ссылка на приватное зеркало нашего сайта всего за 1$. Внимание количество ограничено!!!

2 сезон

iTunes

1 сезон

1

iTunes

iTunes

iTunes

1 сезон

RePack

30

ИГРА 18+

pack

ВАЖНО

!!Акция!!

Alien_RageХит недели

RePack

MK11
pack

Забери бонус

RePack

jed

!!Акция!!

Alien_Rage

RePack

fifa19

RePack

Assassins Creed: Odyssey

RePack

NEED FOR SPEED™ PAYBACK

4 сезон

9 сезон

Бесстыжие 9 сезон

Все сериалы

все сериалы на PB.wtf

RePack

FAR CRY 5
  

Белая стрела. Возмездие / Сезон: 1 / Серии: 1-12 из 12 (Александр Строев (III), Алексей Шикин) [2015, Боевик, детектив, WEB-DL 1080p] pb.wtf

Белая стрела. Возмездие через торрент pb.wtf

Размер: 10.4 GB | Добавлен: 1 год 4 мес. назад | Торрент скачан:31 раз
Скачать  

28-05-2019 19:10 Белая стрела. Возмездие Скачать торрент  

Белая стрела. Возмездие Год выпуска: 2015
Страна: Россия
Жанр: Боевик, детектив
Продолжительность: ~ 00:48:00 серия
Субтитры: отсутствуют

Режиссер: Александр Строев (III), Алексей Шикин



В ролях:

Сергей Маховиков, Александр Саюталин, Андрей Аверьянов, Владимир Маслаков, Егор Кутенков, Мария Жиганова, Евгений Ганелин, Ирина Обрезкова, Ирина Основина, Евгений Такс, Никита Яковлев, Николай Солодилов, Виталий Салий, Инна Горбикова, Анастасия Чистякова (II), Валентина Трухачева, Елена Мартыненко, Дмитрий Гирев, Егор Бакулин, Александр Мосолов, Станислав Мухамадеев, Михаил Бракоренко, Андрей Некрасов (III), Вячеслав Гумеров

Описание:

Главные герои сериала на своей оперативной работе постоянно сталкиваются с несправедливостью. С несправедливостью закона, которому они служат. Уходят от наказания преступники, - убийцы, насильники, грабители, их неотмщённые жертвы вопиют в могилах, выжившие потерпевшие теряют веру в справедливость. Для чего тогда нужна настоящая мужская работа, работа оперативника? Не спать ночами, выслеживать и ловить, рискуя жизнью, негодяев для того, чтобы жиреющие судьи выпускали их на свободу в зале суда? Фемида должна быть беспристрастной, но не слепой! Наши герои по-новому смотрят на своё предназначение. Пусть дверцы клетки правосудия не могут удержать разлетающихся стервятников, - наши герои умеют стрелять и влёт.

Качество: WEB-DL 1080p
Формат: MKV

Видео: MPEG-4 AVC, ~ 2 300 Кбит/с, 1920x1080
Аудио: AC3, 2 ch, 192 Кбит/с
скриншот  скриншот  скриншот  скриншот  

Общее
Уникальный идентификатор : 170830239335687577983493454487388053993 (0x8084B513DD125FCF285DFB34D83261E9)
Полное имя : D:\Belaya strela. Vozmmezdie.2015.WEB-DL1080p.Files-x\01.Belaya strela. Vozmmezdie.2015.WEB-DL1080p.Files-x.mkv
Формат : Matroska
Версия формата : Version 4 / Version 2
Размер файла : 804 Мбайт
Продолжительность : 48 м. 45 с.
Общий поток : 2305 Кбит/сек
Программа кодирования : Lavf56.25.101
Библиотека кодирования : Lavf56.25.101 / Lavf56.25.101

Видео
Идентификатор : 1
Формат : AVC
Формат/Информация : Advanced Video Codec
Профиль формата : High@L4
Параметр CABAC формата : Да
Параметр RefFrames формата : 3 кадра
Идентификатор кодека : V_MPEG4/ISO/AVC
Продолжительность : 48 м. 45 с.
Битрейт : 2167 Кбит/сек
Ширина : 1920 пикселей
Высота : 1080 пикселей
Соотношение сторон : 16:9
Режим частоты кадров : Постоянный
Частота кадров : 25,000 кадров/сек
Цветовое пространство : YUV
Субдискретизация насыщенности : 4:2:0
Битовая глубина : 8 бит
Тип развёртки : Прогрессивная
Бит/(Пиксели*Кадры) : 0.040
Размер потока : 721 Мбайт (90%)
Default : Да
Forced : Нет

Аудио
Идентификатор : 2
Формат : AC-3
Формат/Информация : Audio Coding 3
Расширение режима : CM (complete main)
Параметр Endianness формата : Big
Идентификатор кодека : A_AC3
Продолжительность : 48 м. 45 с.
Вид битрейта : Постоянный
Битрейт : 192 Кбит/сек
Каналы : 2 канала
Расположение каналов : Front: L R
Частота : 44,1 КГц
Частота кадров : 28,711 кадров/сек (1536 spf)
Метод сжатия : С потерями
Задержка видео : -40 мс.
Размер потока : 67,0 Мбайт (8%)
Язык : unknown
Default : Да
Forced : Нет

pb.wtf



Скачать Белая стрела. Возмездие через торрент https://b.radikal.ru/b36/1905/0b/1c7c87241761.png Скачать фильм Белая стрела. Возмездие через торрент бесплантно в хорошем качестве Описание: Главные герои сериала на своей оперативной работе постоянно сталкиваются с несправедливостью. С несправедливостью закона, ... 10 10 5
Торрент: Зарегистрирован [2019-05-28 19:10] · скачан: 31 раз
Статус: √ проверено
Размер: 10.4 GB
Как cкачать? Как скачать Белая стрела. Возмездие через торрент | qTorrent

% Раздел Тема Автор DL S | L
Наши сериалы [ 7.62 GB ] Белая стрела. Возмездие / Сезон: 1 / Серии: 1-12 из 12 Алексей Шикин) [2015 SATRip] bober100 Скачать
1 | 0

28-11-2019 20:33  

Отключить всю рекламу на сайте

    Дорогой пользователь! Огромная просьба, поблагодарите релизера, оцените раздачу и оставьте свои комментарий, если Вы скачали Белая стрела. Возмездие через торрент бесплатно! Внесите свою лепту в развитие PiratBit!
    Комментировать посты могут только пользователи прошедшие не сложную регистрацию
    Показать сообщения:    

    Белая стрела. Возмездие через торрент
    Скачать бесплатно Белая стрела. Возмездие
    Белая стрела. Возмездие скачать торрент
    Белая стрела. Возмездие смотреть онлайн
    Cкачать фильм Белая стрела. Возмездие бесплатно
    Белая стрела. Возмездие скачать торрент в хорошем качестве
    Белая стрела. Возмездие смотреть онлайн бесплатно в хорошем качестве


    Вы не можете начинать темы
    Вы не можете отвечать на сообщения
    Вы не можете редактировать свои сообщения
    Вы не можете удалять свои сообщения
    Вы не можете голосовать в опросах
    Вы не можете прикреплять файлы к сообщениям
    Вы можете скачивать файлы