Всегда рабочее зеркало просто перед .vidak.icu напиши любое слово или цифру, Пример http://jha.vidak.icu

>

7.4

iTunes

7.4

2 сезон

9.4

1 сезон

1

7.4

2 сезон

7.2

iTunes

6.0

MVO

13

6.1

iTunes

8.3

Пиратка

30

ULTIMATE

pack

9.9

Лицензия

ВАЖНО

ИГРА 18+

pack

7.3

RePack

MK11

7.7

RePack

jed

7.8

RePack

fifa19

8.5

RePack

RDR2

RePack

NEED FOR SPEED™ PAYBACK

1 сезон

9 сезон

Бесстыжие 9 сезон

Все сериалы

все сериалы на PB.wtf

RePack

FAR CRY 5

Anonymous, доброй ночи, мы катастрофически не успеваем собрать деньги на оплату серверов, помогите нам пожалуйста 5,10,15р., для нас важна любая помощь . В качестве благодарности мы отключим Вам всю рекламу на сайте (укажите свой ник в строку Ваше имя)!

×
  
Magnet ссылка

Морская звезда / Starfish (Эл Уайт) [2018, Ужасы, фантастика, драма, WEB-DL 1080p] AVO [А.Важенин [BadBajo] pb.wtf

Морская звезда через торрент pb.wtf

Размер: 7.39 GB | Добавлен: 2 года 7 мес. назад | Торрент скачан:32 раза
Смотреть онлайн Морская звезда | Скачать    Ребята, помогите собрать деньги на оплату серверов!!!

28-05-2019 19:40 Морская звезда Скачать торрент  

Морская звезда / Starfish Год выпуска: 2018
Страна: США
Жанр: Ужасы, фантастика, драма
Продолжительность: 01:40:23
Перевод: Авторский (одноголосый) |
Субтитры: Английские (отключаемые)

Режиссер: Эл Уайт

rating


В ролях:

Вирджиния Гарднер, Кристина Мастерсон, Эрик Бикрофт, Натали Митчелл, Шеннон Холландер, Элиас Бретт, Танро Исида, Мэтью Томас Браун, Регина Сальдивар, Андреас Виганд

Описание:

Обри переживает смерть лучшего друга, когда вдруг вторжение из параллельного измерения убивает человечество, и девушка оказывается единственной выжившей на Земле. Запершись в квартире почившего, она находит аудиокассеты с пометкой «Записи, которые спасут мир». В надежде найти подсказки к нынешнему состоянию дел Обри начинает слушать кассеты, а в это время монструозные создания заполоняют планету и подбираются к девушке.

Качество: WEB-DL 1080p
Формат: MKV

Видео: 1920х816, ~9261 Kbps, 23.976 (24000/1001) FPS
Аудио#1: Русский: AC3, 6 ch, 640 Kbps (BadBajo)
Аудио#2: Английский: Е-AC3, 6 ch, 640 Kbps
скриншот  скриншот  скриншот  скриншот  скриншот  

Общее
Уникальный идентификатор : 24186458595232181014922254076274534782 (0x12322479F1C498C39476D4AF5F97E97E)
Полное имя : D:\Starfish.2019.1080p.AMZN.WEB-DL.DDP5.1.H.264_rus_BadBajo.mkv
Формат : Matroska
Версия формата : Version 4 / Version 2
Размер файла : 7,39 Гбайт
Продолжительность : 1 ч. 40 м.
Общий поток : 10,5 Мбит/сек
Название фильма : Starfish.2019.1080p.AMZN.WEB-DL.DDP5.1.H.264_rus_BadBajo
Дата кодирования : UTC 2019-05-28 18:14:12
Программа кодирования : mkvmerge v33.1.0 ('Primrose') 64-bit
Библиотека кодирования : libebml v1.3.7 + libmatroska v1.5.0
Обложка : Yes
Attachments : cover.jpg

Видео
Идентификатор : 1
Формат : AVC
Формат/Информация : Advanced Video Codec
Профиль формата : High@L4
Параметр CABAC формата : Да
Параметр RefFrames формата : 4 кадра
Идентификатор кодека : V_MPEG4/ISO/AVC
Продолжительность : 1 ч. 40 м.
Вид битрейта : Постоянный
Битрейт : 9261 Кбит/сек
Номинальный битрейт : 10000 Кбит/сек
Ширина : 1920 пикселей
Высота : 816 пикселей
Соотношение сторон : 2,35:1
Режим частоты кадров : Постоянный
Частота кадров : 23,976 (24000/1001) кадра/сек
Цветовое пространство : YUV
Субдискретизация насыщенности : 4:2:0
Битовая глубина : 8 бит
Тип развёртки : Прогрессивная
Бит/(Пиксели*Кадры) : 0.241
Размер потока : 6,35 Гбайт (86%)
Заголовок : Starfish.2019_AC3_rus_BadBajo
Default : Да
Forced : Нет
Цветовой диапазон : Limited
Основные цвета : BT.709
Характеристики трансфера : BT.709
Коэффициенты матрицы : BT.709

Аудио #1
Идентификатор : 2
Формат : AC-3
Формат/Информация : Audio Coding 3
Расширение режима : CM (complete main)
Параметр Endianness формата : Big
Идентификатор кодека : A_AC3
Продолжительность : 1 ч. 40 м.
Вид битрейта : Постоянный
Битрейт : 640 Кбит/сек
Каналы : 6 каналов
Расположение каналов : Front: L C R, Side: L R, LFE
Частота : 48,0 КГц
Частота кадров : 31,250 кадров/сек (1536 spf)
Метод сжатия : С потерями
Размер потока : 460 Мбайт (6%)
Заголовок : Starfish.2019_AC3_rus_BadBajo
Язык : Russian
Default : Да
Forced : Да

Аудио #2
Идентификатор : 3
Формат : E-AC-3
Формат/Информация : Audio Coding 3
Параметр Endianness формата : Big
Идентификатор кодека : A_EAC3
Продолжительность : 1 ч. 40 м.
Вид битрейта : Постоянный
Битрейт : 640 Кбит/сек
Каналы : 6 каналов
Расположение каналов : Front: L C R, Side: L R, LFE
Частота : 48,0 КГц
Частота кадров : 187,500 кадров/сек (256 spf)
Метод сжатия : С потерями
Размер потока : 460 Мбайт (6%)
Заголовок : Starfish.2019_E_AC3_eng
Язык : English
Default : Нет
Forced : Нет

Текст #1
Идентификатор : 4
Формат : UTF-8
Идентификатор кодека : S_TEXT/UTF8
Идентификатор кодека/Информация : UTF-8 Plain Text
Язык : English
Default : Нет
Forced : Нет

Текст #2
Идентификатор : 5
Формат : UTF-8
Идентификатор кодека : S_TEXT/UTF8
Идентификатор кодека/Информация : UTF-8 Plain Text
Заголовок : SDH
Язык : English
Default : Нет
Forced : Нет

pb.wtf



Скачать Морская звезда через торрент https://c.radikal.ru/c25/1905/bc/1fc4fc513497.jpg Скачать, смотреть онлайн Морская звезда бесплантно в хорошем качестве Описание: Обри переживает смерть лучшего друга, когда вдруг вторжение из параллельного измерения убивает человечество, и девушка ... 10 10 2
Торрент: Зарегистрирован [2019-05-28 19:40] · скачан: 32 раз
Статус: √ проверено
Размер: 7.39 GB
Как cкачать? Как скачать Морская звезда через торрент | UTorrent

% Раздел Тема Автор DL S | L
Фильмы с авторской озвучкой [ 2.36 GB ] Морская звезда / Starfish [2018 BDRip-AVC] AVO [А.Важенин [BadBajo] - ExKinoRay Enigma2010 Скачать
1 | 0
T Фильмы (мультфильмы) cо спонсором показа (Новинки AVI/MKV) [ 4.07 GB ] Морская звезда / Starfish [2018 WEB-DL 720p] MVO ["Синема УС"] bober100 Скачать
1 | 0
T Фильмы (мультфильмы) cо спонсором показа (Новинки AVI/MKV) [ 1.37 GB ] Морская звезда / Starfish [2018 WEB-DLRip] MVO ["Синема УС"] bober100 Скачать
1 | 0

28-11-2019 20:33  

Отключить всю рекламу на сайте

    Дорогой пользователь! Огромная просьба, поблагодарите релизера, оцените раздачу и оставьте свои комментарий, если Вы скачали Морская звезда через торрент бесплатно!
    Комментировать посты могут только пользователи прошедшие не сложную регистрацию
    Показать сообщения:    

    Морская звезда через торрент
    Скачать бесплатно Морская звезда
    Морская звезда скачать торрент
    Морская звезда смотреть онлайн
    Cкачать фильм Морская звезда бесплатно
    Морская звезда скачать торрент в хорошем качестве
    Морская звезда смотреть онлайн бесплатно в хорошем качестве


    Вы не можете начинать темы
    Вы не можете отвечать на сообщения
    Вы не можете редактировать свои сообщения
    Вы не можете удалять свои сообщения
    Вы не можете голосовать в опросах
    Вы не можете прикреплять файлы к сообщениям
    Вы можете скачивать файлы