Ссылка на приватное зеркало нашего сайта всего за 1$. Внимание количество ограничено!!!

2 сезон

iTunes

1 сезон

1

2 сезон

2 сезон

iTunes

1 сезон

RePack

30

Ultimate

ВАЖНО

ИГРА 18+

pack

RePack

MK11
pack

Забери бонус

RePack

jed

!!Акция!!

Alien_Rage

RePack

fifa19

RePack

Assassins Creed: Odyssey

RePack

NEED FOR SPEED™ PAYBACK

4 сезон

9 сезон

Бесстыжие 9 сезон

Все сериалы

все сериалы на PB.wtf

RePack

FAR CRY 5
  

Я заберу твоего мертвеца / I'll Take Your Dead (Чад Арчибальд) [2018, криминал, ужасы, WEB-DL 1080p] MVO [HDRezka Studio] pb.wtf

Я заберу твоего мертвеца через торрент pb.wtf

Размер: 3.87 GB | Добавлен: 1 год 6 мес. назад | Торрент скачан:142 раза
Скачать  

28-05-2019 21:25 Я заберу твоего мертвеца Скачать торрент  

Я заберу твоего мертвеца / I'll Take Your Dead Год выпуска: 2018
Страна: Канада
Жанр: криминал, ужасы
Продолжительность: 01:25:45
Перевод: Профессиональный (многоголосый) | HDRezka Studio
Субтитры: английские

Режиссер: Чад Арчибальд

rating

В ролях:

Эйдан Дивайн, Ава Престон, Джесс Салгейру, Брэндон МакНайт, Майкл Ревентан, Эри Миллен, Мо Жюди-Ламур, Раффаэль Бреретон

Описание:

Фермер Уильям с дочерью Глорией живёт недалеко от города. Так вышло, что его дом стал местом, куда бандиты привозят трупы, и задача Уильяма — заставить тела исчезнуть. Глория уже привыкла к папиному занятию и даже считает, что души погибших теперь населяют их дом. Но однажды установленный порядок нарушается неожиданным событием — одна из привезённых на утилизацию оказывается ещё живой...

Качество: WEB-DL 1080p
Формат: MKV

Видео: 1920x1080 (16:9), 23.976 fps, MPEG-4 AVC ~5 634 kbps avg
Аудио#1: 48.0 kHz, AC3 Dolby Digital, 2/0 (L,R) ch, ~192 kbps | RUS / HDRezka Studio
Аудио#2: 48.0 kHz, Enhanced Audio Coding 3, 3/2 (L,C,R,l,r) + LFE ch, ~640 kbps | ENG
скриншот  скриншот  скриншот  

General
Unique ID : 85361149704386185300516417315715963475 (0x4037F59D3960DCAB2744ADE20FEC5A53)
Complete name : Ill.Take.Your.Dead.2018.WEB-DL.1080p.mkv
Format : Matroska
Format version : Version 4 / Version 2
File size : 3.87 GiB
Duration : 1 h 25 min
Overall bit rate : 6 468 kb/s
Encoded date : UTC 2019-05-16 08:02:26
Writing application : mkvmerge v20.0.0 ('I Am The Sun') 64-bit
Writing library : libebml v1.3.5 + libmatroska v1.4.8

Video
ID : 1
Format : AVC
Format/Info : Advanced Video Codec
Format profile : High@L4
Format settings : CABAC / 4 Ref Frames
Format settings, CABAC : Yes
Format settings, RefFrames : 4 frames
Codec ID : V_MPEG4/ISO/AVC
Duration : 1 h 25 min
Bit rate mode : Constant
Bit rate : 5 634 kb/s
Nominal bit rate : 10 000 kb/s
Width : 1 920 pixels
Height : 1 080 pixels
Display aspect ratio : 16:9
Frame rate mode : Constant
Frame rate : 23.976 (24000/1001) FPS
Color space : YUV
Chroma subsampling : 4:2:0
Bit depth : 8 bits
Scan type : Progressive
Bits/(Pixel*Frame) : 0.113
Stream size : 3.37 GiB (87%)
Language : English
Default : Yes
Forced : No
Color range : Limited
Color primaries : BT.709
Transfer characteristics : BT.709
Matrix coefficients : BT.709

Audio #1
ID : 2
Format : AC-3
Format/Info : Audio Coding 3
Codec ID : A_AC3
Duration : 1 h 25 min
Bit rate mode : Constant
Bit rate : 192 kb/s
Channel(s) : 2 channels
Channel positions : Front: L R
Sampling rate : 48.0 kHz
Frame rate : 31.250 FPS (1536 SPF)
Bit depth : 16 bits
Compression mode : Lossy
Stream size : 118 MiB (3%)
Title : MVO HDRezka Studio
Language : Russian
Service kind : Complete Main
Default : Yes
Forced : No

Audio #2
ID : 3
Format : E-AC-3
Format/Info : Enhanced Audio Coding 3
Codec ID : A_EAC3
Duration : 1 h 25 min
Bit rate mode : Constant
Bit rate : 640 kb/s
Channel(s) : 6 channels
Channel positions : Front: L C R, Side: L R, LFE
Sampling rate : 48.0 kHz
Frame rate : 187.500 FPS (256 SPF)
Compression mode : Lossy
Stream size : 393 MiB (10%)
Language : English
Service kind : Complete Main
Default : No
Forced : No

Text
ID : 4
Format : UTF-8
Codec ID : S_TEXT/UTF8
Codec ID/Info : UTF-8 Plain Text
Duration : 1 h 21 min
Bit rate : 37 b/s
Count of elements : 786
Stream size : 22.6 KiB (0%)
Language : English
Default : No
Forced : No

Menu
00:00:00.000 : en:1
00:09:18.350 : en:2
00:19:47.729 : en:3
00:30:03.552 : en:4
00:39:37.416 : en:5
00:50:29.109 : en:6
00:58:41.810 : en:7
01:09:52.730 : en:8
01:19:40.441 : en:9
01:21:51.028 : en:10

pb.wtf



Скачать Я заберу твоего мертвеца через торрент http://c.radikal.ru/c38/1905/2c/4835c8cc01f1.jpg Скачать фильм Я заберу твоего мертвеца через торрент бесплантно в хорошем качестве Описание: Фермер Уильям с дочерью Глорией живёт недалеко от города. Так вышло, что его дом стал местом, куда бандиты привозят трупы, и ... 10 10 6
Торрент: Зарегистрирован [2019-05-28 21:25] · скачан: 142 раз
Статус: T временная
Размер: 3.87 GB
Как cкачать? Как скачать Я заберу твоего мертвеца через торрент | qTorrent

28-11-2019 20:33  

Отключить всю рекламу на сайте

    Дорогой пользователь! Огромная просьба, поблагодарите релизера, оцените раздачу и оставьте свои комментарий, если Вы скачали Я заберу твоего мертвеца через торрент бесплатно! Внесите свою лепту в развитие PiratBit!
    Комментировать посты могут только пользователи прошедшие не сложную регистрацию
    Показать сообщения:    

    Я заберу твоего мертвеца через торрент
    Скачать бесплатно Я заберу твоего мертвеца
    Я заберу твоего мертвеца скачать торрент
    Я заберу твоего мертвеца смотреть онлайн
    Cкачать фильм Я заберу твоего мертвеца бесплатно
    Я заберу твоего мертвеца скачать торрент в хорошем качестве
    Я заберу твоего мертвеца смотреть онлайн бесплатно в хорошем качестве


    Вы не можете начинать темы
    Вы не можете отвечать на сообщения
    Вы не можете редактировать свои сообщения
    Вы не можете удалять свои сообщения
    Вы не можете голосовать в опросах
    Вы не можете прикреплять файлы к сообщениям
    Вы можете скачивать файлы