Ссылка на приватное зеркало всего за 1$. Внимание количество ограничено!!!

OK

1+1

iTunes

мы

OK

1

WEB-DLRip

Джокер

Пифагор

Ведьмак / The Witcher сериал

iTunes

ПШазам

ОК

Оно 2

iTunes

30
pack

Вам бонус

ВАЖНО

!!Акция!!

Alien_RageХит недели

RePack

Resident Evil 21

ИГРА 18+

pack

RePack

jed

RePack

fifa19

RePack

Assassins Creed: Odyssey

RePack

NEED FOR SPEED™ PAYBACK

4 сезон

9 сезон

Бесстыжие 9 сезон

Все сериалы

все сериалы на PB.wtf

RePack

FAR CRY 5
  

Горячая голова / Hot-Blooded Hero (Чжан Цзяхао) [2018, Комедия, военный, WEBRip 720p] MVO [КОЛОБОК] pb.wtf

Горячая голова через торрент pb.wtf

Размер: 2.9 GB | Добавлен: 7 мес. назад | Торрент скачан:15 раз
Скачать  

29-05-2019 06:58 Горячая голова Скачать торрент  

Горячая голова / Hot-Blooded HeroГод выпуска: 2018
Страна: Китай
Жанр: Комедия, военный
Продолжительность: 01:11:49
Перевод: Любительский (многоголосый) | КОЛОБОК
Субтитры: отсутствуют

Режиссер: Чжан Цзяхао

rating

В ролях:

Кан Цзинькай, Ван Фэнцзе, Мяо Лимэн, Шунь Цзы, Чжан Лицзюнь, Ли Шуай, Тянь Баолу, Сюй Вэньцян

Описание:

Фильм рассказывает историю об инциденте 18 сентября, полном вторжении японских захватчиков, на китайские земли. После того, как японские захватчики убивали жителей деревни, трое молодых людей, которые первоначально жили в маленькой деревне, питаются скривиться от захватчиков.

Качество: WEBRip 720p
Формат: MKV

Видео: h.264,5 385 Кбит/с, 1280x544
Аудио: Русский, (AC3, 2 ch, 384 Кбит/с)
скриншот  скриншот  скриншот  

Общее
Уникальный идентификатор : 205243029576040131825882620132866187793 (0x9A685EA1A0640D5DA767B38F683CE211)
Полное имя : D:\герой с горячей кровью.Pk.WEBRip.72Op.mkv
Формат : Matroska
Версия формата : Version 2
Размер файла : 2,90 Гбайт
Продолжительность : 1 ч. 11 м.
Режим общего битрейта : Переменный
Общий поток : 5771 Кбит/сек
Дата кодирования : UTC 2019-05-28 11:28:42
Программа кодирования : mkvmerge v8.3.0 ('Over the Horizon') 64bit
Библиотека кодирования : libebml v1.3.1 + libmatroska v1.4.2

Видео
Идентификатор : 1
Формат : AVC
Формат/Информация : Advanced Video Codec
Профиль формата : High@L4.1
Параметр CABAC формата : Да
Параметр RefFrames формата : 4 кадра
Идентификатор кодека : V_MPEG4/ISO/AVC
Продолжительность : 1 ч. 11 м.
Вид битрейта : Переменный
Битрейт : 5385 Кбит/сек
Максимальный битрейт : 6000 Кбит/сек
Ширина : 1280 пикселей
Высота : 544 пикселя
Соотношение сторон : 2,35:1
Режим частоты кадров : Постоянный
Частота кадров : 23,976 (24000/1001) кадра/сек
Стандарт вещания : Component
Цветовое пространство : YUV
Субдискретизация насыщенности : 4:2:0
Битовая глубина : 8 бит
Тип развёртки : Прогрессивная
Бит/(Пиксели*Кадры) : 0.316
Размер потока : 2,65 Гбайт (91%)
Default : Да
Forced : Нет
Цветовой диапазон : Limited
Основные цвета : BT.709
Характеристики трансфера : BT.709
Коэффициенты матрицы : BT.709

Аудио
Идентификатор : 2
Формат : AC-3
Формат/Информация : Audio Coding 3
Расширение режима : CM (complete main)
Параметр Endianness формата : Big
Идентификатор кодека : A_AC3
Продолжительность : 1 ч. 11 м.
Вид битрейта : Постоянный
Битрейт : 384 Кбит/сек
Каналы : 2 канала
Расположение каналов : Front: L R
Частота : 48,0 КГц
Частота кадров : 31,250 кадров/сек (1536 spf)
Метод сжатия : С потерями
Размер потока : 197 Мбайт (7%)
Default : Да
Forced : Нет

pb.wtf



Скачать Горячая голова через торрент https://c.radikal.ru/c05/1905/b4/d297fb31d13d.jpg Скачать фильм Горячая голова через торрент бесплантно в хорошем качестве Описание: Фильм рассказывает историю об инциденте 18 сентября, полном вторжении японских захватчиков, на китайские земли. После того, как ... 10 10 3
Торрент: Зарегистрирован [2019-05-29 06:58] · скачан: 15 раз
Статус: T временная
Размер: 2.9 GB
Как cкачать? Как скачать Горячая голова через торрент | qTorrent

% Раздел Тема Автор DL S | L
T Фильмы (мультфильмы) cо спонсором показа (Новинки AVI/MKV) [ 1.37 GB ] Горячая голова / Hot-Blooded Hero [2018 военный WEBRip] MVO [КОЛОБОК] bober100 Скачать
1 | 0

28-11-2019 20:33  

Отключить всю рекламу на сайте

29-05-2019 07:13 Горячая голова Скачать торрент  

питаются скривиться -феерично обосрались.)pb.wtf



    Дорогой пользователь! Огромная просьба, поблагодарите релизера, оцените раздачу и оставьте свои комментарий, если Вы скачали Горячая голова через торрент бесплатно! Внесите свою лепту в развитие PiratBit!
    Комментировать посты могут только пользователи прошедшие не сложную регистрацию
    Показать сообщения:    

    Горячая голова через торрент
    Скачать бесплатно Горячая голова
    Горячая голова скачать торрент
    Горячая голова смотреть онлайн
    Cкачать фильм Горячая голова бесплатно
    Горячая голова скачать торрент в хорошем качестве
    Горячая голова смотреть онлайн бесплатно в хорошем качестве


    Вы не можете начинать темы
    Вы не можете отвечать на сообщения
    Вы не можете редактировать свои сообщения
    Вы не можете удалять свои сообщения
    Вы не можете голосовать в опросах
    Вы не можете прикреплять файлы к сообщениям
    Вы можете скачивать файлы