Ссылка на приватное зеркало всего за 1$. Внимание количество ограничено!!!

OK

1+1

iTunes

мы

OK

1

WEB-DLRip

Джокер

Пифагор

Ведьмак / The Witcher сериал

iTunes

ПШазам

ОК

Оно 2

iTunes

30
pack

Вам бонус

ВАЖНО

!!Акция!!

Alien_RageХит недели

RePack

Resident Evil 21

ИГРА 18+

pack

RePack

jed

RePack

fifa19

RePack

Assassins Creed: Odyssey

RePack

NEED FOR SPEED™ PAYBACK

4 сезон

9 сезон

Бесстыжие 9 сезон

Все сериалы

все сериалы на PB.wtf

RePack

FAR CRY 5
  

Озноб от страха / Kalt ist die Angst (Берно Кюртен) [2017, драма, HDTVRip 720p] MVO ["Синема УС"] pb.wtf

Озноб от страха через торрент pb.wtf

Размер: 3.03 GB | Добавлен: 7 мес. назад | Торрент скачан:7 раз
Скачать  

29-05-2019 11:19 Озноб от страха Скачать торрент  

Озноб от страха / Kalt ist die AngstГод выпуска: 2017
Страна: Германия
Жанр: драма
Продолжительность: 01:28:56
Перевод: Любительский (многоголосый) | "Синема УС"
Субтитры: отсутствуют

Режиссер: Берно Кюртен

rating

В ролях: Каролина Петерс, Рудольф Ковальски, Кристоф Мария Хербст, Анника Блендль, Ханс Вернер Майер, Анк Зевеньего, Арндт-Шверинг Сонри, Себастьян Миров

Описание: Клэйр и Давид были счастливой супружской парой и Клэйр всегда казалось, что им не хватает только детей. Несмотря на все попытки, завести их так и не удалось. Но счастливая жизнь в одночасье закончилась, когда Давид неожиданно умер. И вскоре растерянная Клэйр узнаёт, что Давид вёл двойную жизнь: он регулярно встречался с другой женщиной, а на фирме занимался какими-то тёмными делами. Клэйр пытается узнать правду и вдруг замечает, что она под "колпаком" ...

Качество: HDTVRip 720p
Формат: MKV
Видео: h.264,4 399 Кбит/с, 1280x720
Аудио#1: Русский, (AC3, 2 ch, 384 Кбит/с)
скриншот  скриншот  скриншот  

Общее
Уникальный идентификатор : 226649896251593160170666135958884239498 (0xAA832EA534590057BE2DE09BC6D0C88A)
Полное имя : D:\Kalt_ist_die_Angst.2O17.P.HDTV.72Op.mkv
Формат : Matroska
Версия формата : Version 2
Размер файла : 3,03 Гбайт
Продолжительность : 1 ч. 28 м.
Режим общего битрейта : Переменный
Общий поток : 4880 Кбит/сек
Дата кодирования : UTC 2019-05-28 12:57:12
Программа кодирования : mkvmerge v8.3.0 ('Over the Horizon') 64bit
Библиотека кодирования : libebml v1.3.1 + libmatroska v1.4.2

Видео
Идентификатор : 1
Формат : AVC
Формат/Информация : Advanced Video Codec
Профиль формата : High@L4.1
Параметр CABAC формата : Да
Параметр RefFrames формата : 4 кадра
Идентификатор кодека : V_MPEG4/ISO/AVC
Продолжительность : 1 ч. 28 м.
Вид битрейта : Переменный
Битрейт : 4399 Кбит/сек
Максимальный битрейт : 5000 Кбит/сек
Ширина : 1280 пикселей
Высота : 720 пикселей
Соотношение сторон : 16:9
Режим частоты кадров : Постоянный
Частота кадров : 23,976 (24000/1001) кадра/сек
Стандарт вещания : Component
Цветовое пространство : YUV
Субдискретизация насыщенности : 4:2:0
Битовая глубина : 8 бит
Тип развёртки : Прогрессивная
Бит/(Пиксели*Кадры) : 0.199
Размер потока : 2,73 Гбайт (90%)
Default : Да
Forced : Нет
Цветовой диапазон : Limited
Основные цвета : BT.709
Характеристики трансфера : BT.709
Коэффициенты матрицы : BT.709

Аудио
Идентификатор : 2
Формат : AC-3
Формат/Информация : Audio Coding 3
Расширение режима : CM (complete main)
Параметр Endianness формата : Big
Идентификатор кодека : A_AC3
Продолжительность : 1 ч. 28 м.
Вид битрейта : Постоянный
Битрейт : 384 Кбит/сек
Каналы : 2 канала
Расположение каналов : Front: L R
Частота : 48,0 КГц
Частота кадров : 31,250 кадров/сек (1536 spf)
Метод сжатия : С потерями
Размер потока : 244 Мбайт (8%)
Default : Да
Forced : Нет

pb.wtf



Скачать Озноб от страха через торрент https://d.radikal.ru/d22/1905/4f/64c55f256b19.jpg Скачать фильм Озноб от страха через торрент бесплантно в хорошем качестве Описание: Клэйр и Давид были счастливой супружской парой и Клэйр всегда казалось, что им не хватает только детей. Несмотря на все попытки, ... 10 10 2
Торрент: Зарегистрирован [2019-05-29 11:19] · скачан: 7 раз
Статус: T временная
Размер: 3.03 GB
Как cкачать? Как скачать Озноб от страха через торрент | qTorrent

% Раздел Тема Автор DL S | L
T Фильмы (мультфильмы) cо спонсором показа (Новинки AVI/MKV) [ 1.37 GB ] Озноб от страха / Kalt ist die Angst [2017 HDTVRip] MVO ["Синема УС"] bober100 Скачать
1 | 0

28-11-2019 20:33  

Отключить всю рекламу на сайте

    Дорогой пользователь! Огромная просьба, поблагодарите релизера, оцените раздачу и оставьте свои комментарий, если Вы скачали Озноб от страха через торрент бесплатно! Внесите свою лепту в развитие PiratBit!
    Комментировать посты могут только пользователи прошедшие не сложную регистрацию
    Показать сообщения:    

    Озноб от страха через торрент
    Скачать бесплатно Озноб от страха
    Озноб от страха скачать торрент
    Озноб от страха смотреть онлайн
    Cкачать фильм Озноб от страха бесплатно
    Озноб от страха скачать торрент в хорошем качестве
    Озноб от страха смотреть онлайн бесплатно в хорошем качестве


    Вы не можете начинать темы
    Вы не можете отвечать на сообщения
    Вы не можете редактировать свои сообщения
    Вы не можете удалять свои сообщения
    Вы не можете голосовать в опросах
    Вы не можете прикреплять файлы к сообщениям
    Вы можете скачивать файлы