Ссылка на приватное зеркало нашего сайта всего за 1$. Внимание количество ограничено!!!

2 сезон

iTunes

1 сезон

1

iTunes

iTunes

iTunes

1 сезон

RePack

30

ИГРА 18+

pack

ВАЖНО

!!Акция!!

Alien_RageХит недели

RePack

MK11
pack

Забери бонус

RePack

jed

!!Акция!!

Alien_Rage

RePack

fifa19

RePack

Assassins Creed: Odyssey

RePack

NEED FOR SPEED™ PAYBACK

4 сезон

9 сезон

Бесстыжие 9 сезон

Все сериалы

все сериалы на PB.wtf

RePack

FAR CRY 5
  

Костоправ / Сезон: 1 / Серии: 1-12 из 12 (Владимир Мельниченко) [2012, Комедия, медицина, HDTV 1080i] pb.wtf

Костоправ через торрент pb.wtf

Размер: 33.65 GB | Добавлен: 1 год 4 мес. назад | Торрент скачан:0 раз
Скачать  

29-05-2019 11:35 Костоправ Скачать торрент  

Костоправ Год выпуска: 2012
Страна: Россия, Украина
Жанр: Комедия, медицина
Продолжительность: ~ 00:50:00 серия
Перевод: Не требуется
Субтитры: отсутствуют

Режиссер: Владимир Мельниченко

rating

В ролях:

Алексей Горбунов, Юлия Ауг, Георгий Делиев, Виталий Линецкий, Александр Лыков, Евгений Паперный, Александр Семчев, Ирина Апексимова, Ирина Мельник, Валерия Ходос, Евгений Плиско-Куприн, Янина Соколова, Михаил Пшеничный, Виктор Андриенко, Сергей Сипливый, Оксана Борбат, Любава Грешнова, Михаил Горевой

Описание:

Главный герой сериала - Анатолий Савчук, врач со сложной судьбой. Он оставил работу в профессиональной медицине, поселился в деревне и стал известен в округе, как костоправ, поднимающий безнадежных больных. В первой серии фильма благодаря стечению обстоятельств Савчук ставит на ноги сына московского бизнесмена, владельца столичной коммерческой клиники. В знак благодарности, бизнесмен, увидевший в Савчуке незаурядного специалиста, приглашает его заведовать отделением своей клиники «Ультрамед». Костоправ принимает приглашение и приезжает в Москву, оказываясь для руководителей медицинского учреждения незваным гостем.

Качество: HDTV 1080i
Формат: TS

Видео: 1920х1080 (16:9), 25 fps, AVC MPEG-4 (x264), High@L4.0 ~ 7,8 Мbps , 0.148 bit/pixel
Аудио: 48 kHz, MP2, 2 ch, 256 kbps
скриншот  скриншот  скриншот  скриншот  

Общее
Идентификатор : 1 (0x1)
Полное имя : D:\Kostoprav.2011.HDTV.(1080i).MediaClub\Kostoprav.(01.seriya.iz.12).2011.HDTV.(1080i).MediaClub.ts
Формат : MPEG-TS
Размер файла : 2,84 Гбайт
Продолжительность : 48 м. 49 с.
Режим общего битрейта : Переменный
Общий поток : 8329 Кбит/сек

Видео
Идентификатор : 306 (0x132)
Идентификатор меню : 20106 (0x4E8A)
Формат : AVC
Формат/Информация : Advanced Video Codec
Профиль формата : Main@L4
Параметр CABAC формата : Да
Параметр RefFrames формата : 4 кадра
Параметр GOP формата : M=4, N=28
Идентификатор кодека : 27
Продолжительность : 48 м. 49 с.
Битрейт : 7659 Кбит/сек
Ширина : 1920 пикселей
Высота : 1080 пикселей
Соотношение сторон : 16:9
Частота кадров : 25,000 кадров/сек
Стандарт вещания : Component
Цветовое пространство : YUV
Субдискретизация насыщенности : 4:2:0
Битовая глубина : 8 бит
Тип развёртки : Чересстрочная
Метод сохранения типа развёртки : Раздельные поля
Порядок развёртки : Верхнее поле первое
Бит/(Пиксели*Кадры) : 0.148
Размер потока : 2,61 Гбайт (92%)
Цветовой диапазон : Limited
Основные цвета : BT.709
Характеристики трансфера : BT.709
Коэффициенты матрицы : BT.709

Аудио
Идентификатор : 406 (0x196)
Идентификатор меню : 20106 (0x4E8A)
Формат : MPEG Audio
Версия формата : Version 1
Профиль формата : Layer 2
Идентификатор кодека : 3
Продолжительность : 48 м. 49 с.
Вид битрейта : Постоянный
Битрейт : 256 Кбит/сек
Каналы : 2 канала
Частота : 48,0 КГц
Метод сжатия : С потерями
Задержка видео : -80 мс.
Размер потока : 89,4 Мбайт (3%)
Язык : English

pb.wtf



Скачать Костоправ через торрент http://i69.fastpic.ru/big/2015/0802/3e/61672bbeb1ee2ade3762aa393cdce53e.jpg Скачать фильм Костоправ через торрент бесплантно в хорошем качестве Описание: Главный герой сериала - Анатолий Савчук, врач со сложной судьбой. Он оставил работу в профессиональной медицине, поселился в ... 10 10 2
Торрент: Зарегистрирован [2019-05-29 11:35] · скачан: 0 раз
Статус: √ проверено
Размер: 33.65 GB
Как cкачать? Как скачать Костоправ через торрент | qTorrent

28-11-2019 20:33  

Отключить всю рекламу на сайте

    Дорогой пользователь! Огромная просьба, поблагодарите релизера, оцените раздачу и оставьте свои комментарий, если Вы скачали Костоправ через торрент бесплатно! Внесите свою лепту в развитие PiratBit!
    Комментировать посты могут только пользователи прошедшие не сложную регистрацию
    Показать сообщения:    

    Костоправ через торрент
    Скачать бесплатно Костоправ
    Костоправ скачать торрент
    Костоправ смотреть онлайн
    Cкачать фильм Костоправ бесплатно
    Костоправ скачать торрент в хорошем качестве
    Костоправ смотреть онлайн бесплатно в хорошем качестве


    Вы не можете начинать темы
    Вы не можете отвечать на сообщения
    Вы не можете редактировать свои сообщения
    Вы не можете удалять свои сообщения
    Вы не можете голосовать в опросах
    Вы не можете прикреплять файлы к сообщениям
    Вы можете скачивать файлы