Ссылка на приватное зеркало всего за 1$. Внимание количество ограничено!!!

OK

1+1

iTunes

мы

OK

1

WEB-DLRip

Джокер

Пифагор

Ведьмак / The Witcher сериал

iTunes

ПШазам

ОК

Оно 2

iTunes

30
pack

Вам бонус

ВАЖНО

!!Акция!!

Alien_RageХит недели

RePack

Resident Evil 21

ИГРА 18+

pack

RePack

jed

RePack

fifa19

RePack

Assassins Creed: Odyssey

RePack

NEED FOR SPEED™ PAYBACK

4 сезон

9 сезон

Бесстыжие 9 сезон

Все сериалы

все сериалы на PB.wtf

RePack

FAR CRY 5
  

Зоопарк / Zoo (Антонио Тублен) [2018, ужасы, драма, мелодрама, комедия, WEB-DL 720p] MVO ["Синема УС"] pb.wtf

Зоопарк через торрент pb.wtf

Размер: 3.85 GB | Добавлен: 7 мес. назад | Торрент скачан:27 раз
Скачать  

29-05-2019 15:21 Зоопарк Скачать торрент  

Зоопарк / Zoo Год выпуска: 2018
Страна: Дания, Швеция
Жанр: ужасы, драма, мелодрама, комедия
Продолжительность: 01:35:25
Перевод: Любительский (многоголосый) | "Синема УС"
Субтитры: отсутствуют

Режиссер: Антонио Тублен

rating

В ролях:

Зои Таппер, Эдвард Спелирс, Антония Кэмпбелл-Хьюджес, Ян Бейвут, Лукас Лоугрэн, Клаус Хюлер, Данни Тикер, Робин Готт, Патрик Карлсон, Томас Чаанинг

Описание:

После того, как семейная пара Карен и Джон узнали, что не могут иметь детей, искра между ними угасла. Они продолжали по инерции существовать бок о бок, но сами напоминали скорее живых мертвецов. Когда внезапная эпидемия начинает превращать людей в настоящих зомби, а супругам приходится запереться в квартире и ждать спасения, то они вспоминают, что важней всего погода в доме, и вдруг их отношения начинают играть новыми красками. Однажды они впускают к себе другую пару, и былой гармонии приходит конец.

Качество: WEB-DL 720p
Формат: MKV

Видео: h.264, 5 396 Кбит/с, 1280x544
Аудио#1: Русский, (AC3, 2 ch, 384 Кбит/с)
скриншот  скриншот  скриншот  

Общее
Уникальный идентификатор : 209770398126112423004839469084759095899 (0x9DD04F22782A29AB969AB9B4ECECFA5B)
Полное имя : D:\Zoo.2018.P.WEB-DL.72Op.mkv
Формат : Matroska
Версия формата : Version 2
Размер файла : 3,85 Гбайт
Продолжительность : 1 ч. 35 м.
Режим общего битрейта : Переменный
Общий поток : 5782 Кбит/сек
Дата кодирования : UTC 2019-05-29 06:05:42
Программа кодирования : mkvmerge v8.3.0 ('Over the Horizon') 64bit
Библиотека кодирования : libebml v1.3.1 + libmatroska v1.4.2

Видео
Идентификатор : 1
Формат : AVC
Формат/Информация : Advanced Video Codec
Профиль формата : High@L4.1
Параметр CABAC формата : Да
Параметр RefFrames формата : 4 кадра
Идентификатор кодека : V_MPEG4/ISO/AVC
Продолжительность : 1 ч. 35 м.
Вид битрейта : Переменный
Битрейт : 5396 Кбит/сек
Максимальный битрейт : 6000 Кбит/сек
Ширина : 1280 пикселей
Высота : 544 пикселя
Соотношение сторон : 2,35:1
Режим частоты кадров : Постоянный
Частота кадров : 23,976 (24000/1001) кадра/сек
Стандарт вещания : Component
Цветовое пространство : YUV
Субдискретизация насыщенности : 4:2:0
Битовая глубина : 8 бит
Тип развёртки : Прогрессивная
Бит/(Пиксели*Кадры) : 0.316
Размер потока : 3,52 Гбайт (91%)
Default : Да
Forced : Нет
Цветовой диапазон : Limited
Основные цвета : BT.709
Характеристики трансфера : BT.709
Коэффициенты матрицы : BT.709

Аудио
Идентификатор : 2
Формат : AC-3
Формат/Информация : Audio Coding 3
Расширение режима : CM (complete main)
Параметр Endianness формата : Big
Идентификатор кодека : A_AC3
Продолжительность : 1 ч. 35 м.
Вид битрейта : Постоянный
Битрейт : 384 Кбит/сек
Каналы : 2 канала
Расположение каналов : Front: L R
Частота : 48,0 КГц
Частота кадров : 31,250 кадров/сек (1536 spf)
Метод сжатия : С потерями
Размер потока : 262 Мбайт (7%)
Default : Да
Forced : Нет

pb.wtf



Скачать Зоопарк через торрент https://b.radikal.ru/b25/1905/3a/b1e4871915fa.jpg Скачать фильм Зоопарк через торрент бесплантно в хорошем качестве Описание: После того, как семейная пара Карен и Джон узнали, что не могут иметь детей, искра между ними угасла. Они продолжали по инерции ... 10 10 3
Торрент: Зарегистрирован [2019-05-29 15:21] · скачан: 27 раз
Статус: T временная
Размер: 3.85 GB
Как cкачать? Как скачать Зоопарк через торрент | qTorrent

% Раздел Тема Автор DL S | L
T Фильмы (мультфильмы) cо спонсором показа (Новинки AVI/MKV) [ 1.37 GB ] Зоопарк / Zoo [2018 WEB-DLRip] MVO ["Синема УС"] bober100 Скачать
1 | 0
National Geographic [ 2.36 GB ] Nat Geo Wild: Секреты зоопарка. Кенгуру Манс / Secrets of the Zoo [2018 документальный HDTV 1080i] VO bober100 Скачать
1 | 0
Документальные фильмы и телепередачи [ 8.2 GB ] Viasat Nature: Тайная жизнь зоопарка / The Secret Life of the Zoo / Серии: 1-6 из 6 [2016 документальный HDTV 1080p] VO bober100 Скачать
1 | 0
Документальные фильмы и телепередачи [ 3.76 GB ] Viasat Nature: Тайная жизнь зоопарка / The Secret Life of the Zoo / Серии: 1-6 из 6 [2016 документальный HDTVRip] VO bober100 Скачать
1 | 0
Discovery [ 4.5 GB ] Зоопарк / The Bronx Zoo [2018 Документальный животные HDTVRip ] Скорпион1976 Скачать
1 | 0
Фильмы без перевода [ 30.92 GB ] Жена смотрителя зоопарка / The Zookeeper's Wife [2017 военный биография BDRemux] [Оригинал-ENG] smaster Скачать
1 | 0
R.G. Resident & PiratVoice - Фильмы, Видео [ 2.11 GB ] Жена смотрителя зоопарка / The Zookeeper's Wife [2017 военный биография BDRip-AVC от R.G. Resident] - -Lexx- Скачать
1 | 0

28-11-2019 20:33  

Отключить всю рекламу на сайте

    Дорогой пользователь! Огромная просьба, поблагодарите релизера, оцените раздачу и оставьте свои комментарий, если Вы скачали Зоопарк через торрент бесплатно! Внесите свою лепту в развитие PiratBit!
    Комментировать посты могут только пользователи прошедшие не сложную регистрацию
    Показать сообщения:    

    Зоопарк через торрент
    Скачать бесплатно Зоопарк
    Зоопарк скачать торрент
    Зоопарк смотреть онлайн
    Cкачать фильм Зоопарк бесплатно
    Зоопарк скачать торрент в хорошем качестве
    Зоопарк смотреть онлайн бесплатно в хорошем качестве


    Вы не можете начинать темы
    Вы не можете отвечать на сообщения
    Вы не можете редактировать свои сообщения
    Вы не можете удалять свои сообщения
    Вы не можете голосовать в опросах
    Вы не можете прикреплять файлы к сообщениям
    Вы можете скачивать файлы