Ссылка на приватное зеркало всего за 1$. Внимание количество ограничено!!!

OK

1+1

iTunes

мы

OK

1

WEB-DLRip

Джокер

Пифагор

Ведьмак / The Witcher сериал

iTunes

ПШазам

ОК

Оно 2

iTunes

30
pack

Вам бонус

ВАЖНО

!!Акция!!

Alien_RageХит недели

RePack

Resident Evil 21

ИГРА 18+

pack

RePack

jed

RePack

fifa19

RePack

Assassins Creed: Odyssey

RePack

NEED FOR SPEED™ PAYBACK

4 сезон

9 сезон

Бесстыжие 9 сезон

Все сериалы

все сериалы на PB.wtf

RePack

FAR CRY 5
  

Стадо / Maghzhaye Koochake Zang Zadeh / Sheeple (Хуман Сейеди) [2018, Боевик, драма, криминал, WEB-DL 720p] MVO ["Синема УС"] pb.wtf

Стадо через торрент pb.wtf

Размер: 4.12 GB | Добавлен: 7 мес. назад | Торрент скачан:23 раза
Скачать  

29-05-2019 15:51 Стадо Скачать торрент  

Стадо / Maghzhaye Koochake Zang Zadeh / Sheeple Год выпуска: 2018
Страна: Иран
Жанр: Боевик, драма, криминал
Продолжительность: 01:43:40
Перевод: Любительский (многоголосый) | "Синема УС"
Субтитры: отсутствуют

Режиссер: Хуман Сейеди

rating

В ролях:

Навид Мохаммадзаде, Фархад Аслани, Фарид Сейджжади Хоссейни, Марьян Эттефагян, Навид Пурфарадж, Назанин Баяти, Ладан Жавех Ванд, Махьяр Рахат-Талаб, Хамун Сейеди

Описание:

История о банде наркодиллеров на юге Тегерана, которые приютили о себя несколько детей и сирот. Братья Шахин и Шакур стоят во главе этой банды, однако её распад приводит к разладу в их семье и их жизнях.

Качество: WEB-DL 720p
Формат: MKV

Видео: h.264,5 306 Кбит/с, 1280x580
Аудио#1: Русский, (AC3, 2 ch, 384 Кбит/с)
скриншот  скриншот  скриншот  

Общее
Уникальный идентификатор : 184416947035143890249086942709388586425 (0x8ABD697C6B7995859D0D16F02C6EADB9)
Полное имя : D:\Sheeple.2O18.P.WEB-DL.72Op.mkv
Формат : Matroska
Версия формата : Version 2
Размер файла : 4,12 Гбайт
Продолжительность : 1 ч. 43 м.
Режим общего битрейта : Переменный
Общий поток : 5692 Кбит/сек
Дата кодирования : UTC 2019-05-29 02:48:30
Программа кодирования : mkvmerge v8.3.0 ('Over the Horizon') 64bit
Библиотека кодирования : libebml v1.3.1 + libmatroska v1.4.2

Видео
Идентификатор : 1
Формат : AVC
Формат/Информация : Advanced Video Codec
Профиль формата : High@L4.1
Параметр CABAC формата : Да
Параметр RefFrames формата : 4 кадра
Идентификатор кодека : V_MPEG4/ISO/AVC
Продолжительность : 1 ч. 43 м.
Вид битрейта : Переменный
Битрейт : 5306 Кбит/сек
Максимальный битрейт : 6000 Кбит/сек
Ширина : 1280 пикселей
Высота : 580 пикселей
Соотношение сторон : 2,2:1
Режим частоты кадров : Постоянный
Частота кадров : 23,976 (24000/1001) кадра/сек
Стандарт вещания : Component
Цветовое пространство : YUV
Субдискретизация насыщенности : 4:2:0
Битовая глубина : 8 бит
Тип развёртки : Прогрессивная
Бит/(Пиксели*Кадры) : 0.292
Размер потока : 3,76 Гбайт (91%)
Default : Да
Forced : Нет
Цветовой диапазон : Limited
Основные цвета : BT.709
Характеристики трансфера : BT.709
Коэффициенты матрицы : BT.709

Аудио
Идентификатор : 2
Формат : AC-3
Формат/Информация : Audio Coding 3
Расширение режима : CM (complete main)
Параметр Endianness формата : Big
Идентификатор кодека : A_AC3
Продолжительность : 1 ч. 43 м.
Вид битрейта : Постоянный
Битрейт : 384 Кбит/сек
Каналы : 2 канала
Расположение каналов : Front: L R
Частота : 48,0 КГц
Частота кадров : 31,250 кадров/сек (1536 spf)
Метод сжатия : С потерями
Размер потока : 285 Мбайт (7%)
Default : Да
Forced : Нет

pb.wtf



Скачать Стадо через торрент https://d.radikal.ru/d13/1905/64/4f3db23daf0d.jpg Скачать фильм Стадо через торрент бесплантно в хорошем качестве Описание: История о банде наркодиллеров на юге Тегерана, которые приютили о себя несколько детей и сирот. Братья Шахин и Шакур стоят во ... 10 10 2
Торрент: Зарегистрирован [2019-05-29 15:51] · скачан: 23 раз
Статус: T временная
Размер: 4.12 GB
Как cкачать? Как скачать Стадо через торрент | qTorrent

% Раздел Тема Автор DL S | L
T Фильмы (мультфильмы) cо спонсором показа (Новинки AVI/MKV) [ 1.46 GB ] Стадо / Maghzhaye Koochake Zang Zadeh / Sheeple [2018 WEB-DLRip] MVO ["Синема УС"] bober100 Скачать
1 | 0

28-11-2019 20:33  

Отключить всю рекламу на сайте

    Дорогой пользователь! Огромная просьба, поблагодарите релизера, оцените раздачу и оставьте свои комментарий, если Вы скачали Стадо через торрент бесплатно! Внесите свою лепту в развитие PiratBit!
    Комментировать посты могут только пользователи прошедшие не сложную регистрацию
    Показать сообщения:    

    Стадо через торрент
    Скачать бесплатно Стадо
    Стадо скачать торрент
    Стадо смотреть онлайн
    Cкачать фильм Стадо бесплатно
    Стадо скачать торрент в хорошем качестве
    Стадо смотреть онлайн бесплатно в хорошем качестве


    Вы не можете начинать темы
    Вы не можете отвечать на сообщения
    Вы не можете редактировать свои сообщения
    Вы не можете удалять свои сообщения
    Вы не можете голосовать в опросах
    Вы не можете прикреплять файлы к сообщениям
    Вы можете скачивать файлы