Ссылка на приватное зеркало всего за 1$. Внимание количество ограничено!!!

OK

1+1

iTunes

мы

OK

1

WEB-DLRip

Джокер

Пифагор

Ведьмак / The Witcher сериал

iTunes

ПШазам

ОК

Оно 2

iTunes

30
pack

Вам бонус

ВАЖНО

!!Акция!!

Alien_RageХит недели

RePack

Resident Evil 21

ИГРА 18+

pack

RePack

jed

RePack

fifa19

RePack

Assassins Creed: Odyssey

RePack

NEED FOR SPEED™ PAYBACK

4 сезон

9 сезон

Бесстыжие 9 сезон

Все сериалы

все сериалы на PB.wtf

RePack

FAR CRY 5
  

Морская звезда / Starfish (Эл Уайт) [2018, Ужасы, фантастика, драма, WEB-DL 720p] MVO ["Синема УС"] pb.wtf

Морская звезда через торрент pb.wtf

Размер: 4.07 GB | Добавлен: 7 мес. назад | Торрент скачан:91 раз
Скачать  

29-05-2019 16:02 Морская звезда Скачать торрент  

Морская звезда / Starfish Год выпуска: 2018
Страна: США
Жанр: Ужасы, фантастика, драма
Продолжительность: 01:41:10
Перевод: Любительский (многоголосый) | "Синема УС"
Субтитры: отсутствуют

Режиссер: Эл Уайт

rating

В ролях:

Вирджиния Гарднер, Кристина Мастерсон, Эрик Бикрофт, Натали Митчелл, Шеннон Холландер, Элиас Бретт, Танро Исида, Мэтью Томас Браун, Регина Сальдивар, Андреас Виганд

Описание:

Обри переживает смерть лучшего друга, когда вдруг вторжение из параллельного измерения убивает человечество, и девушка оказывается единственной выжившей на Земле. Запершись в квартире почившего, она находит аудиокассеты с пометкой «Записи, которые спасут мир». В надежде найти подсказки к нынешнему состоянию дел Обри начинает слушать кассеты, а в это время монструозные создания заполоняют планету и подбираются к девушке.

Качество: WEB-DL 720p
Формат: MKV

Видео: h.264,5 370 Кбит/с, 1280x536
Аудио: Русский, (AC3, 2 ch, 384 Кбит/с)
скриншот  скриншот  скриншот  

Общее
Уникальный идентификатор : 171794377060623966295078710680670546478 (0x813E64BCCC7CBD0AA49CA3DBD461AA2E)
Полное имя : D:\Starfish.2019.P.WEB-DL.72Op.mkv
Формат : Matroska
Версия формата : Version 2
Размер файла : 4,07 Гбайт
Продолжительность : 1 ч. 41 м.
Режим общего битрейта : Переменный
Общий поток : 5756 Кбит/сек
Дата кодирования : UTC 2019-05-29 02:53:12
Программа кодирования : mkvmerge v8.3.0 ('Over the Horizon') 64bit
Библиотека кодирования : libebml v1.3.1 + libmatroska v1.4.2

Видео
Идентификатор : 1
Формат : AVC
Формат/Информация : Advanced Video Codec
Профиль формата : High@L4.1
Параметр CABAC формата : Да
Параметр RefFrames формата : 4 кадра
Идентификатор кодека : V_MPEG4/ISO/AVC
Продолжительность : 1 ч. 41 м.
Вид битрейта : Переменный
Битрейт : 5370 Кбит/сек
Максимальный битрейт : 6000 Кбит/сек
Ширина : 1280 пикселей
Высота : 536 пикселей
Соотношение сторон : 2,40:1
Режим частоты кадров : Постоянный
Частота кадров : 23,976 (24000/1001) кадра/сек
Стандарт вещания : Component
Цветовое пространство : YUV
Субдискретизация насыщенности : 4:2:0
Битовая глубина : 8 бит
Тип развёртки : Прогрессивная
Бит/(Пиксели*Кадры) : 0.320
Размер потока : 3,71 Гбайт (91%)
Default : Да
Forced : Нет
Цветовой диапазон : Limited
Основные цвета : BT.709
Характеристики трансфера : BT.709
Коэффициенты матрицы : BT.709

Аудио
Идентификатор : 2
Формат : AC-3
Формат/Информация : Audio Coding 3
Расширение режима : CM (complete main)
Параметр Endianness формата : Big
Идентификатор кодека : A_AC3
Продолжительность : 1 ч. 41 м.
Вид битрейта : Постоянный
Битрейт : 384 Кбит/сек
Каналы : 2 канала
Расположение каналов : Front: L R
Частота : 48,0 КГц
Частота кадров : 31,250 кадров/сек (1536 spf)
Метод сжатия : С потерями
Размер потока : 278 Мбайт (7%)
Default : Да
Forced : Нет

pb.wtf



Скачать Морская звезда через торрент https://b.radikal.ru/b34/1905/ac/c85fd0cf4394.jpg Скачать фильм Морская звезда через торрент бесплантно в хорошем качестве Описание: Обри переживает смерть лучшего друга, когда вдруг вторжение из параллельного измерения убивает человечество, и девушка ... 10 10 2
Торрент: Зарегистрирован [2019-05-29 16:02] · скачан: 91 раз
Статус: T временная
Размер: 4.07 GB
Как cкачать? Как скачать Морская звезда через торрент | qTorrent

% Раздел Тема Автор DL S | L
T Фильмы (мультфильмы) cо спонсором показа (Новинки AVI/MKV) [ 1.37 GB ] Морская звезда / Starfish [2018 WEB-DLRip] MVO ["Синема УС"] bober100 Скачать
2 | 0
Фильмы с авторской озвучкой [ 7.39 GB ] Морская звезда / Starfish [2018 WEB-DL 1080p] AVO [А.Важенин [BadBajo] bober100 Скачать
1 | 0

28-11-2019 20:33  

Отключить всю рекламу на сайте

01-06-2019 18:35 Морская звезда Скачать торрент  

Веселит вначале надпись: "Основано на реальных событиях"... ахха Это ж надо было настолько прикалотся над зрителями. Хотя может у авторов шиза и они все это реально видели pb.wtf



02-06-2019 03:35 Морская звезда Скачать торрент  

Нудятина и полная хрень. Больная на голову, с синдромом обиженки на весь мир, девица пытается спасти мир pb.wtf



    Дорогой пользователь! Огромная просьба, поблагодарите релизера, оцените раздачу и оставьте свои комментарий, если Вы скачали Морская звезда через торрент бесплатно! Внесите свою лепту в развитие PiratBit!
    Комментировать посты могут только пользователи прошедшие не сложную регистрацию
    Показать сообщения:    

    Морская звезда через торрент
    Скачать бесплатно Морская звезда
    Морская звезда скачать торрент
    Морская звезда смотреть онлайн
    Cкачать фильм Морская звезда бесплатно
    Морская звезда скачать торрент в хорошем качестве
    Морская звезда смотреть онлайн бесплатно в хорошем качестве


    Вы не можете начинать темы
    Вы не можете отвечать на сообщения
    Вы не можете редактировать свои сообщения
    Вы не можете удалять свои сообщения
    Вы не можете голосовать в опросах
    Вы не можете прикреплять файлы к сообщениям
    Вы можете скачивать файлы