Ссылка на приватное зеркало нашего сайта всего за 1$. Внимание количество ограничено!!!

2 сезон

iTunes

1 сезон

1

2 сезон

2 сезон

iTunes

1 сезон

RePack

30

Новинка

ВАЖНО

ИГРА 18+

pack

RePack

MK11
pack

Забери бонус

RePack

jed

!!Акция!!

Alien_Rage

RePack

fifa19

RePack

Assassins Creed: Odyssey

RePack

NEED FOR SPEED™ PAYBACK

4 сезон

9 сезон

Бесстыжие 9 сезон

Все сериалы

все сериалы на PB.wtf

RePack

FAR CRY 5
  

Люцифер / Lucifer / Сезон: 4 / Серии: 1-10 из 10 (Лен Уайзман) [2019, Фэнтези, драма, ужасы, WEB-DL 1080p] MVO [NewStudio] pb.wtf

Люцифер через торрент pb.wtf

Размер: 25.63 GB | Добавлен: 1 год 6 мес. назад | Торрент скачан:101 раз
Скачать  

29-05-2019 20:33 Люцифер Скачать торрент  

Люцифер / Lucifer Год выпуска: 2019
Страна: США
Жанр: Фэнтези, драма, ужасы
Продолжительность: ~ 00:43:00 серия
Перевод: Профессиональный многоголосый | NewStudio
Субтитры: отсутствуют

Режиссер: Лен Уайзман

rating

В ролях:

Рэйчел Харрис, Лорен Джерман, Кайла Юэлл, Кевин Алехандро, Лесли-Энн Брандт, Д.Б. Вудсайд, Том Эллис, Мэтт Корбой, Скарлет Эстевез и др.

Описание:

Заскучавший и несчастный повелитель преисподней, Люцифер Морнингстар оставил свой престол и отправился в современный Лос-Анджелес, где основал ночной клуб Lux». Очаровательный, харизматичный и дьявольски привлекательный Люцифер наслаждается своим отдыхом — вином, женщинами и музыкой — пока красивая поп-звезда не оказывается убитой на пороге его клуба…

Качество: WEB-DL 1080p
Формат: MKV

Видео: MPEG-4 AVC, ~ 7 000 Кбит/с, 1920x1080
Аудио: АС3, 48 kHz, 6 ch, 448 kbps (Русский)

Общее
Уникальный идентификатор : 280313414865943343952034984430300547369 (0xD2E2666325D9FD408BD8C108A7FBC929)
Полное имя : D:\Lucifer.S04.WEBDL.1080p.NewStudio.TV\Lucifer.S04E01.WEBDL.1080p.NewStudio.TV.mkv
Формат : Matroska
Версия формата : Version 4 / Version 2
Размер файла : 2,47 Гбайт
Продолжительность : 48 м. 28 с.
Режим общего битрейта : Переменный
Общий поток : 7306 Кбит/сек
Дата кодирования : UTC 2019-05-26 11:30:21
Программа кодирования : TMPGEnc Video Mastering Works 6 Version. 6.2.10.37
Библиотека кодирования : TMPGEnc Video Mastering Works 6 Version. 6.2.10.37

Видео
Идентификатор : 2
Формат : AVC
Формат/Информация : Advanced Video Codec
Профиль формата : High@L4.1
Параметр CABAC формата : Да
Параметр RefFrames формата : 4 кадра
Идентификатор кодека : V_MPEG4/ISO/AVC
Продолжительность : 48 м. 28 с.
Вид битрейта : Переменный
Битрейт : 7000 Кбит/сек
Максимальный битрейт : 49,6 Мбит/сек
Ширина : 1920 пикселей
Высота : 1080 пикселей
Соотношение сторон : 16:9
Режим частоты кадров : Постоянный
Частота кадров : 23,976 (24000/1001) кадра/сек
Стандарт вещания : Component
Цветовое пространство : YUV
Субдискретизация насыщенности : 4:2:0
Битовая глубина : 8 бит
Тип развёртки : Прогрессивная
Бит/(Пиксели*Кадры) : 0.141
Размер потока : 2,27 Гбайт (92%)
Библиотека кодирования : x264 core 148
Настройки программы : cabac=1 / ref=4 / deblock=1:0:0 / analyse=0x3:0x113 / me=hex / subme=7 / psy=1 / psy_rd=1.00:0.00 / mixed_ref=1 / me_range=16 / chroma_me=1 / trellis=1 / 8x8dct=1 / cqm=1 / deadzone=21,11 / fast_pskip=1 / chroma_qp_offset=-2 / threads=24 / lookahead_threads=4 / sliced_threads=0 / slices=1 / nr=0 / decimate=1 / interlaced=0 / minigop=0 / stitchable=1 / constrained_intra=0 / bframes=3 / b_pyramid=0 / b_adapt=1 / b_bias=0 / direct=1 / weightb=1 / open_gop=1 / weightp=2 / keyint=250 / keyint_min=23 / scenecut=40 / intra_refresh=0 / rc_lookahead=40 / rc=abr / mbtree=1 / bitrate=7000 / ratetol=1.0 / qcomp=0.60 / qpmin=3 / qpmax=69 / qpstep=4 / vbv_maxrate=49600 / vbv_bufsize=49600 / nal_hrd=vbr / filler=0 / ip_ratio=1.40 / aq=1:1.00
Default : Да
Forced : Нет
Цветовой диапазон : Limited
Основные цвета : BT.709
Характеристики трансфера : BT.709
Коэффициенты матрицы : BT.709

Аудио
Идентификатор : 1
Формат : AC-3
Формат/Информация : Audio Coding 3
Расширение режима : CM (complete main)
Параметр Endianness формата : Big
Идентификатор кодека : A_AC3
Продолжительность : 48 м. 28 с.
Вид битрейта : Постоянный
Битрейт : 448 Кбит/сек
Каналы : 6 каналов
Расположение каналов : Front: L C R, Side: L R, LFE
Частота : 48,0 КГц
Частота кадров : 31,250 кадров/сек (1536 spf)
Метод сжатия : С потерями
Размер потока : 155 Мбайт (6%)
Default : Да
Forced : Нет

pb.wtf



Скачать Люцифер через торрент http://i91.fastpic.ru/big/2017/1005/33/a2ac0670f11f6cc2b6b4ae7b01aae933.png Скачать фильм Люцифер через торрент бесплантно в хорошем качестве Описание: Заскучавший и несчастный повелитель преисподней, Люцифер Морнингстар оставил свой престол и отправился в современный ... 8.7 10 7
Info! Золотая раздача, скачанное не засчитывается.
Торрент: Зарегистрирован [2019-05-29 20:33] · скачан: 101 раз
Статус: √ проверено
Размер: 25.63 GB
Как cкачать? Как скачать Люцифер через торрент | qTorrent

% Раздел Тема Автор DL S | L
Зарубежные сериалы [ 74.88 GB ] Люцифер / Lucifer / Сезон: 4 / Серии: 1-10 из 10 [2019 UHD WEB-DL 2160p] DUB [ARC-TV Studio] bober100 Скачать
1 | 0
Зарубежные сериалы [ 19.21 GB ] Люцифер / Lucifer / Сезон: 4 / Серии: 1-10 из 10 [2019 WEB-DL 1080p] killermax2013 Скачать
1 | 0
Зарубежные сериалы [ 7.01 GB ] Люцифер / Lucifer / Сезон: 4 / Серии: 1-10 из 10 [2019 WEB-DLRip] MVO [LostFilm] bober100 Скачать
3 | 0
Зарубежные сериалы [ 10.72 GB ] Люцифер / Lucifer / Сезон: 4 / Серии: 1-10 из 10 [2019 WEBRip 720p] MVO [LostFilm] bober100 Скачать
2 | 0
Зарубежные сериалы [ 9.8 GB ] Люцифер / Lucifer / Сезон: 4 / Серии: 1-10 из 10 [2019 WEB-DLRip] killermax2013 Скачать
2 | 0
Зарубежные сериалы [ 11.94 GB ] Люцифер / Lucifer / Сезон: 4 / Серии: 1-10 из 10 [2019 WEB-DL 720p] killermax2013 Скачать
1 | 1

28-11-2019 20:33  

Отключить всю рекламу на сайте

01-06-2019 01:15 Люцифер Скачать торрент  

это не сериал. Это одна сплошная реклама. Удалил нахер это pb.wtf



01-06-2019 03:45 Люцифер Скачать торрент  

Я хз, какой-то зашкварный сериал, уже второй раз пытаюсь смотреть, сначала с 1 сезона - было скучно, теперь с этого - та же самая хрень, не понимаю столь хорошие оценки на кинопоиске...pb.wtf



    Дорогой пользователь! Огромная просьба, поблагодарите релизера, оцените раздачу и оставьте свои комментарий, если Вы скачали Люцифер через торрент бесплатно! Внесите свою лепту в развитие PiratBit!
    Комментировать посты могут только пользователи прошедшие не сложную регистрацию
    Показать сообщения:    

    Люцифер через торрент
    Скачать бесплатно Люцифер
    Люцифер скачать торрент
    Люцифер смотреть онлайн
    Cкачать фильм Люцифер бесплатно
    Люцифер скачать торрент в хорошем качестве
    Люцифер смотреть онлайн бесплатно в хорошем качестве


    Вы не можете начинать темы
    Вы не можете отвечать на сообщения
    Вы не можете редактировать свои сообщения
    Вы не можете удалять свои сообщения
    Вы не можете голосовать в опросах
    Вы не можете прикреплять файлы к сообщениям
    Вы можете скачивать файлы