Ссылка на приватное зеркало всего за 1$. Внимание количество ограничено!!!

OK

1+1

iTunes

мы

OK

1

WEB-DLRip

Джокер

Пифагор

Ведьмак / The Witcher сериал

iTunes

ПШазам

ОК

Оно 2

iTunes

30
pack

Вам бонус

ВАЖНО

!!Акция!!

Alien_RageХит недели

RePack

Resident Evil 21

ИГРА 18+

pack

RePack

jed

RePack

fifa19

RePack

Assassins Creed: Odyssey

RePack

NEED FOR SPEED™ PAYBACK

4 сезон

9 сезон

Бесстыжие 9 сезон

Все сериалы

все сериалы на PB.wtf

RePack

FAR CRY 5
  

Приют святых / Saints Rest (Нога Ашкенази) [2018, Мюзикл, драма, музыка, WEB-DL 720p] MVO ["Синема УС"] pb.wtf

Приют святых через торрент pb.wtf

Раздают: 1 [ 0 KB/s ]
Размер: 3.29 GB | Добавлен: 7 мес. назад | Торрент скачан:5 раз
Скачать  

30-05-2019 05:37 Приют святых Скачать торрент  

Приют святых / Saints Rest Год выпуска: 2018
Страна: США
Жанр: Мюзикл, драма, музыка
Продолжительность: 01:23:19
Перевод: Любительский (многоголосый) | "Синема УС"
Субтитры: отсутствуют

Режиссер: Нога Ашкенази

rating

В ролях:

Хани Фюрстенберг, Алли Тримм, Дана Ивги, Райан Бингхэм, Кросби, Мэри Доти, Кевин Филд, Майкл Келли, Девин Лэндин, Джун Тэк Ли

Описание:

Музыкальная драма, действие которой происходит в маленьком городке штата Айова, повествует о двух сестрах, которые после долгой разлуки в течение лета вновь сближаются. Их обоюдная любовь к музыке помогает преодолеть все трудности.

Качество: WEB-DL 720p
Формат: MKV

Видео: h.264,5 274 Кбит/с, 1280x720
Аудио#1: Русский, (AC3, 2 ch, 384 Кбит/с)
скриншот  скриншот  скриншот  

Общее
Уникальный идентификатор : 245961867346445760872484174795746018572 (0xB90A8855323F8A449461A05B9A43850C)
Полное имя : D:\Saints.Rest.2018.P.WEB-DL.72Op.mkv
Формат : Matroska
Версия формата : Version 2
Размер файла : 3,29 Гбайт
Продолжительность : 1 ч. 23 м.
Режим общего битрейта : Переменный
Общий поток : 5660 Кбит/сек
Дата кодирования : UTC 2019-05-29 06:19:09
Программа кодирования : mkvmerge v8.3.0 ('Over the Horizon') 64bit
Библиотека кодирования : libebml v1.3.1 + libmatroska v1.4.2

Видео
Идентификатор : 1
Формат : AVC
Формат/Информация : Advanced Video Codec
Профиль формата : High@L4.1
Параметр CABAC формата : Да
Параметр RefFrames формата : 4 кадра
Идентификатор кодека : V_MPEG4/ISO/AVC
Продолжительность : 1 ч. 23 м.
Вид битрейта : Переменный
Битрейт : 5274 Кбит/сек
Максимальный битрейт : 6000 Кбит/сек
Ширина : 1280 пикселей
Высота : 720 пикселей
Соотношение сторон : 16:9
Режим частоты кадров : Постоянный
Частота кадров : 23,976 (24000/1001) кадра/сек
Стандарт вещания : Component
Цветовое пространство : YUV
Субдискретизация насыщенности : 4:2:0
Битовая глубина : 8 бит
Тип развёртки : Прогрессивная
Бит/(Пиксели*Кадры) : 0.234
Размер потока : 3,00 Гбайт (91%)
Default : Да
Forced : Нет
Цветовой диапазон : Limited
Основные цвета : BT.709
Характеристики трансфера : BT.709
Коэффициенты матрицы : BT.709

Аудио
Идентификатор : 2
Формат : AC-3
Формат/Информация : Audio Coding 3
Расширение режима : CM (complete main)
Параметр Endianness формата : Big
Идентификатор кодека : A_AC3
Продолжительность : 1 ч. 23 м.
Вид битрейта : Постоянный
Битрейт : 384 Кбит/сек
Каналы : 2 канала
Расположение каналов : Front: L R
Частота : 48,0 КГц
Частота кадров : 31,250 кадров/сек (1536 spf)
Метод сжатия : С потерями
Размер потока : 229 Мбайт (7%)
Default : Да
Forced : Нет

pb.wtf



Скачать Приют святых через торрент https://c.radikal.ru/c12/1905/fd/35661772b5d2.jpg Скачать фильм Приют святых через торрент бесплантно в хорошем качестве Описание: Музыкальная драма, действие которой происходит в маленьком городке штата Айова, повествует о двух сестрах, которые после долгой ... 10 10 2
Торрент: Зарегистрирован [2019-05-30 05:37] · скачан: 5 раз
Статус: T временная
Размер: 3.29 GB
Как cкачать? Как скачать Приют святых через торрент | qTorrent

% Раздел Тема Автор DL S | L
T Фильмы (мультфильмы) cо спонсором показа (Новинки AVI/MKV) [ 1.37 GB ] Приют святых / Saints Rest [2018 Мюзикл музыка WEB-DLRip] MVO ["Синема УС"] bober100 Скачать
1 | 0

28-11-2019 20:33  

Отключить всю рекламу на сайте

09-06-2019 05:13 Приют святых Скачать торрент  

Спокойный такой фильм.Вроде бы и ни о чем,но мотивирует реально на общение поближе с окружением.Ознакомившись с описанием в принципе именно этого и ожидала.pb.wtf



    Дорогой пользователь! Огромная просьба, поблагодарите релизера, оцените раздачу и оставьте свои комментарий, если Вы скачали Приют святых через торрент бесплатно! Внесите свою лепту в развитие PiratBit!
    Комментировать посты могут только пользователи прошедшие не сложную регистрацию
    Показать сообщения:    

    Приют святых через торрент
    Скачать бесплатно Приют святых
    Приют святых скачать торрент
    Приют святых смотреть онлайн
    Cкачать фильм Приют святых бесплатно
    Приют святых скачать торрент в хорошем качестве
    Приют святых смотреть онлайн бесплатно в хорошем качестве


    Вы не можете начинать темы
    Вы не можете отвечать на сообщения
    Вы не можете редактировать свои сообщения
    Вы не можете удалять свои сообщения
    Вы не можете голосовать в опросах
    Вы не можете прикреплять файлы к сообщениям
    Вы можете скачивать файлы