Ссылка на приватное зеркало всего за 1$. Внимание количество ограничено!!!

OK

1+1

iTunes

мы

OK

1

WEB-DLRip

Джокер

Пифагор

Ведьмак / The Witcher сериал

iTunes

ПШазам

ОК

Оно 2

iTunes

30
pack

Вам бонус

ВАЖНО

!!Акция!!

Alien_RageХит недели

RePack

Resident Evil 21

ИГРА 18+

pack

RePack

jed

RePack

fifa19

RePack

Assassins Creed: Odyssey

RePack

NEED FOR SPEED™ PAYBACK

4 сезон

9 сезон

Бесстыжие 9 сезон

Все сериалы

все сериалы на PB.wtf

RePack

FAR CRY 5
  

Болотные зомби 2 / Swamp Zombies 2 (Лен Кабасинский) [2018, Ужасы, фантастика, боевик, комедия, WEB-DL 720p] MVO ["Синема УС"] pb.wtf

Болотные зомби 2 через торрент pb.wtf

Размер: 2.89 GB | Добавлен: 7 мес. назад | Торрент скачан:19 раз
Скачать  

30-05-2019 06:38 Болотные зомби 2 Скачать торрент  

Болотные зомби 2 / Swamp Zombies 2Год выпуска: 2018
Страна: США
Жанр: Ужасы, фантастика, боевик, комедия
Продолжительность: 01:13:32
Перевод: Любительский (многоголосый) | "Синема УС"
Субтитры: отсутствуют

Режиссер: Лен Кабасинский

rating

В ролях: Майкл Лео Ченти, Джо Чэпман, Барон Крейз, Джастин Скайлер Дэниелс, Пенелопа Паппас, Скайлар Дэниелс, Мец Донато, Дженна М Фрайер, Уэсли Грин, Мэл Хефлин

Описание: Мир охватила эпидемия, превратившая большую часть человечества в зомби. Но некоторые решили не отчаиваться, а навариться на случившемся. Так появилось новое реалити-шоу, в котором участники отправляются в лес, где охотятся на живых мертвецов. Но когда активисты решают спасти несчастных зомби от телевизионщиков, всё идёт не по плану, и участники реалити-шоу оказываются в ловушке.

Качество: WEB-DL 720p
Формат: MKV

Видео: h.264, 5 236 Кбит/с, 1280x720
Аудио#1: Русский, (AC3, 2 ch, 384 Кбит/с)
скриншот  скриншот  скриншот  

Общее
Уникальный идентификатор : 239253246099896133041934315646439842102 (0xB3FE7FC4BA145CE48837D4E08646E136)
Полное имя : D:\Swamp.Zombies.2.2018.P.WEB-DL.72Op.mkv
Формат : Matroska
Версия формата : Version 2
Размер файла : 2,89 Гбайт
Продолжительность : 1 ч. 13 м.
Режим общего битрейта : Переменный
Общий поток : 5622 Кбит/сек
Дата кодирования : UTC 2019-05-29 13:41:21
Программа кодирования : mkvmerge v8.3.0 ('Over the Horizon') 64bit
Библиотека кодирования : libebml v1.3.1 + libmatroska v1.4.2

Видео
Идентификатор : 1
Формат : AVC
Формат/Информация : Advanced Video Codec
Профиль формата : High@L4.1
Параметр CABAC формата : Да
Параметр RefFrames формата : 4 кадра
Идентификатор кодека : V_MPEG4/ISO/AVC
Продолжительность : 1 ч. 13 м.
Вид битрейта : Переменный
Битрейт : 5236 Кбит/сек
Максимальный битрейт : 6000 Кбит/сек
Ширина : 1280 пикселей
Высота : 720 пикселей
Соотношение сторон : 16:9
Режим частоты кадров : Постоянный
Частота кадров : 23,976 (24000/1001) кадра/сек
Стандарт вещания : Component
Цветовое пространство : YUV
Субдискретизация насыщенности : 4:2:0
Битовая глубина : 8 бит
Тип развёртки : Прогрессивная
Бит/(Пиксели*Кадры) : 0.232
Размер потока : 2,63 Гбайт (91%)
Default : Да
Forced : Нет
Цветовой диапазон : Limited
Основные цвета : BT.709
Характеристики трансфера : BT.709
Коэффициенты матрицы : BT.709

Аудио
Идентификатор : 2
Формат : AC-3
Формат/Информация : Audio Coding 3
Расширение режима : CM (complete main)
Параметр Endianness формата : Big
Идентификатор кодека : A_AC3
Продолжительность : 1 ч. 13 м.
Вид битрейта : Постоянный
Битрейт : 384 Кбит/сек
Каналы : 2 канала
Расположение каналов : Front: L R
Частота : 48,0 КГц
Частота кадров : 31,250 кадров/сек (1536 spf)
Метод сжатия : С потерями
Размер потока : 202 Мбайт (7%)
Default : Да
Forced : Нет

pb.wtf



Скачать Болотные зомби 2 через торрент https://a.radikal.ru/a37/1905/1e/a6cad0489d88.jpg Скачать фильм Болотные зомби 2 через торрент бесплантно в хорошем качестве Описание: Мир охватила эпидемия, превратившая большую часть человечества в зомби. Но некоторые решили не отчаиваться, а навариться на ... 10 10 2
Торрент: Зарегистрирован [2019-05-30 06:38] · скачан: 19 раз
Статус: T временная
Размер: 2.89 GB
Как cкачать? Как скачать Болотные зомби 2 через торрент | qTorrent

% Раздел Тема Автор DL S | L
T Фильмы (мультфильмы) cо спонсором показа (Новинки AVI/MKV) [ 1.37 GB ] Болотные зомби 2 / Swamp Zombies 2 [2018 WEB-DLRip] MVO ["Синема УС"] bober100 Скачать
1 | 0

28-11-2019 20:33  

Отключить всю рекламу на сайте


    Дорогой пользователь! Огромная просьба, поблагодарите релизера, оцените раздачу и оставьте свои комментарий, если Вы скачали Болотные зомби 2 через торрент бесплатно! Внесите свою лепту в развитие PiratBit!
    Комментировать посты могут только пользователи прошедшие не сложную регистрацию
    Показать сообщения:    

    Болотные зомби 2 через торрент
    Скачать бесплатно Болотные зомби 2
    Болотные зомби 2 скачать торрент
    Болотные зомби 2 смотреть онлайн
    Cкачать фильм Болотные зомби 2 бесплатно
    Болотные зомби 2 скачать торрент в хорошем качестве
    Болотные зомби 2 смотреть онлайн бесплатно в хорошем качестве


    Вы не можете начинать темы
    Вы не можете отвечать на сообщения
    Вы не можете редактировать свои сообщения
    Вы не можете удалять свои сообщения
    Вы не можете голосовать в опросах
    Вы не можете прикреплять файлы к сообщениям
    Вы можете скачивать файлы