Ссылка на приватное зеркало нашего сайта всего за 1$. Внимание количество ограничено!!!

2 сезон

iTunes

1 сезон

1

2 сезон

2 сезон

iTunes

1 сезон

RePack

30

Новинка

ВАЖНО

ИГРА 18+

pack

RePack

MK11
pack

Забери бонус

RePack

jed

!!Акция!!

Alien_Rage

RePack

fifa19

RePack

Assassins Creed: Odyssey

RePack

NEED FOR SPEED™ PAYBACK

4 сезон

9 сезон

Бесстыжие 9 сезон

Все сериалы

все сериалы на PB.wtf

RePack

FAR CRY 5
  

Спецназ / S.W.A.T / Сезон: 2 / Серии: 1-23 из 23 (Билл Джирхарт, Джон Шоуолтер) [2018, боевик, триллер, драма, криминал, приключения, WEBRip 1080p] MVO [IdeaFilm] pb.wtf

Спецназ через торрент pb.wtf

Размер: 50.78 GB | Добавлен: 1 год 5 мес. назад | Торрент скачан:6 раз
Скачать  

31-05-2019 06:32 Спецназ Скачать торрент  

Спецназ / S.W.A.T
Год выпуска: 2018
Страна: США
Жанр: боевик, триллер, драма, криминал, приключения
Продолжительность: ~00:45:00 серия
Перевод: Любительский (многоголосый) | IdeaFilm
Субтитры: отсутствуют

Режиссер: Билл Джирхарт, Джон Шоуолтер

rating

В ролях:

Шемар Мур, Стефани Сигман, Алекс Расселл, Джей Хэррингтон, Лина Эско, Кенни Джонсон, Дэвид Лим, Питер Онорати, Патрик Ст. Эсприт, Луис Ферриньо мл.

Описание:

Лейтенанту полицейского спецназа Даниэлю Харрельсону поручают возглавить отряд вышколенных профессионалов с крутым нравом и отсутствием щепетильности при выполнении заданий. Свежесформированная команда — последняя надежда городских властей на восстановление правопорядка в Лос-Анджелесе.

Качество: WEBRip 1080p
Формат: MKV

Видео: 1920x1080 (16/9), 23,976 fps, AVC (х264), Main@L4.1, ~6887 kbps avg, 0.139 bit/pixel
Аудио#1 Rus: :48 kHz, AC3 Dolby Digital, 3/2 (L,C,R,l,r) + LFE ch, ~384 kbps
Аудио#2 Eng: :48 kHz, AC3 Dolby Digital, 3/2 (L,C,R,l,r) + LFE ch, ~384 kbps
скриншот  скриншот  скриншот  скриншот  

Общее
Уникальный идентификатор : 199600307883322351271733830717917885746 (0x96299EF8F29B8054940D2B644CFFF532)
Полное имя : K:\IdeaFilm\S.W.A.T.S02.WEBRip.1080p\S.W.A.T.S02E01.WEBRip.1080p-IdeaFilm.mkv
Формат : Matroska
Версия формата : Version 4 / Version 2
Размер файла : 2,34 Гбайт
Продолжительность : 43 м. 42 с.
Общий поток : 7652 Кбит/сек
Дата кодирования : UTC 2018-10-22 11:55:41
Программа кодирования : mkvmerge v12.0.0 ('Trust / Lust') 64bit
Библиотека кодирования : libebml v1.3.4 + libmatroska v1.4.5

Видео
Идентификатор : 1
Формат : AVC
Формат/Информация : Advanced Video Codec
Профиль формата : Main@L4.1
Настройки формата : CABAC / 4 Ref Frames
Параметр CABAC формата : Да
Параметр RefFrames формата : 4 кадра
Идентификатор кодека : V_MPEG4/ISO/AVC
Продолжительность : 43 м. 42 с.
Битрейт : 6887 Кбит/сек
Ширина : 1920 пикселей
Высота : 1080 пикселей
Соотношение сторон : 16:9
Режим частоты кадров : Постоянный
Частота кадров : 23,976 (24000/1001) кадра/сек
Стандарт вещания : NTSC
Цветовое пространство : YUV
Субдискретизация насыщенности : 4:2:0
Битовая глубина : 8 бит
Тип развёртки : Прогрессивная
Бит/(Пиксели*Кадры) : 0.139
Размер потока : 2,10 Гбайт (90%)
Язык : English
Default : Да
Forced : Нет
Цветовой диапазон : Limited
Основные цвета : BT.709
Характеристики трансфера : BT.709
Коэффициенты матрицы : BT.709

Аудио #1
Идентификатор : 2
Формат : AC-3
Формат/Информация : Audio Coding 3
Идентификатор кодека : A_AC3
Продолжительность : 43 м. 42 с.
Вид битрейта : Постоянный
Битрейт : 384 Кбит/сек
Каналы : 6 каналов
Расположение каналов : Front: L C R, Side: L R, LFE
Частота : 48,0 КГц
Частота кадров : 31,250 кадров/сек (1536 SPF)
Битовая глубина : 16 бит
Метод сжатия : С потерями
Размер потока : 120 Мбайт (5%)
Заголовок : IdeaFilm
Язык : Russian
ServiceKind/String : Complete Main
Default : Да
Forced : Нет

Аудио #2
Идентификатор : 3
Формат : AC-3
Формат/Информация : Audio Coding 3
Идентификатор кодека : A_AC3
Продолжительность : 43 м. 2 с.
Битрейт : 384 Кбит/сек
Каналы : 6 каналов
Частота : 48,0 КГц
Частота кадров : 31,250 кадров/сек (1536 SPF)
Метод сжатия : С потерями
Размер потока : 118 Мбайт (5%)
Язык : English
Default : Нет
Forced : Нет

pb.wtf



Скачать Спецназ через торрент http://i93.fastpic.ru/big/2018/1022/86/c07ba2aed91c9dab78317758a2b43d86.jpg Скачать фильм Спецназ через торрент бесплантно в хорошем качестве Описание: Лейтенанту полицейского спецназа Даниэлю Харрельсону поручают возглавить отряд вышколенных профессионалов с крутым нравом и ... 10 10 2
Торрент: Зарегистрирован [2019-05-31 06:32] · скачан: 6 раз
Статус: √ проверено
Размер: 50.78 GB
Как cкачать? Как скачать Спецназ через торрент | qTorrent

% Раздел Тема Автор DL S | L
Зарубежные сериалы [ 13.27 GB ] Спецназ / S.W.A.T / Сезон: 2 / Серии: 1-23 из 23 [2018 WEBRip] MVO [IdeaFilm] bober100 Скачать
1 | 0
Зарубежные сериалы [ 35.95 GB ] Спецназ / S.W.A.T / Сезон: 2 / Серии: 1-23 из 23 [2018 WEBRip 720p] MVO [IdeaFilm] bober100 Скачать
1 | 0

28-11-2019 20:33  

Отключить всю рекламу на сайте

    Дорогой пользователь! Огромная просьба, поблагодарите релизера, оцените раздачу и оставьте свои комментарий, если Вы скачали Спецназ через торрент бесплатно! Внесите свою лепту в развитие PiratBit!
    Комментировать посты могут только пользователи прошедшие не сложную регистрацию
    Показать сообщения:    

    Спецназ через торрент
    Скачать бесплатно Спецназ
    Спецназ скачать торрент
    Спецназ смотреть онлайн
    Cкачать фильм Спецназ бесплатно
    Спецназ скачать торрент в хорошем качестве
    Спецназ смотреть онлайн бесплатно в хорошем качестве


    Вы не можете начинать темы
    Вы не можете отвечать на сообщения
    Вы не можете редактировать свои сообщения
    Вы не можете удалять свои сообщения
    Вы не можете голосовать в опросах
    Вы не можете прикреплять файлы к сообщениям
    Вы можете скачивать файлы