Ссылка на приватное зеркало всего за 1$. Внимание количество ограничено!!!

OK

1+1

iTunes

мы

OK

1

WEB-DLRip

Джокер

Пифагор

Ведьмак / The Witcher сериал

iTunes

ПШазам

ОК

Оно 2

iTunes

30
pack

Вам бонус

ВАЖНО

!!Акция!!

Alien_RageХит недели

RePack

Resident Evil 21

ИГРА 18+

pack

RePack

jed

RePack

fifa19

RePack

Assassins Creed: Odyssey

RePack

NEED FOR SPEED™ PAYBACK

4 сезон

9 сезон

Бесстыжие 9 сезон

Все сериалы

все сериалы на PB.wtf

RePack

FAR CRY 5
  

Зловещий Бонг 777 / Evil Bong 777 (Чарльз Бэнд) [2018, ужасы, боевик, комедия, WEB-DL 720p] MVO ["Синема УС"] pb.wtf

Зловещий Бонг 777 через торрент pb.wtf

Размер: 2.45 GB | Добавлен: 7 мес. назад | Торрент скачан:18 раз
Скачать  

31-05-2019 08:48 Зловещий Бонг 777 Скачать торрент  

Зловещий Бонг 777 / Evil Bong 777Год выпуска: 2018
Страна: США
Жанр: ужасы, боевик, комедия
Продолжительность: 01:00:04
Перевод: Любительский (многоголосый) | "Синема УС"
Субтитры: отсутствуют

Режиссер: Чарльз Бэнд

rating

В ролях: Сонни Карл Дэвис, Робин Сидни, Джессика Моррис, Минди Робинсон, Дон, Калеб Херст, Адам Ноубл Робертс, Сиркус-Шалевски, Харрисон Суини, Тоня Кэй

Описание: Эбби и компания отправляются в знаменитый город грехов и стяжательства - Лас-Вегас.

Качество: WEB-DL 720p
Формат: MKV

Видео: h.264,5 450 Кбит/с, 1280x720
Аудио: Русский, (AC3, 2 ch, 384 Кбит/с)
скриншот  скриншот  скриншот  

Общее
Уникальный идентификатор : 208131544387550418332695190092002961763 (0x9C94AD682B759FD0A3BB0547CA252963)
Полное имя : D:\Evil.Bong.777.2018.P.WEB_DL.72Op.mkv
Формат : Matroska
Версия формата : Version 2
Размер файла : 2,45 Гбайт
Продолжительность : 1 ч. 0 м.
Режим общего битрейта : Переменный
Общий поток : 5836 Кбит/сек
Дата кодирования : UTC 2019-05-30 17:16:03
Программа кодирования : mkvmerge v8.3.0 ('Over the Horizon') 64bit
Библиотека кодирования : libebml v1.3.1 + libmatroska v1.4.2

Видео
Идентификатор : 1
Формат : AVC
Формат/Информация : Advanced Video Codec
Профиль формата : High@L4.1
Параметр CABAC формата : Да
Параметр RefFrames формата : 4 кадра
Идентификатор кодека : V_MPEG4/ISO/AVC
Продолжительность : 1 ч. 0 м.
Вид битрейта : Переменный
Битрейт : 5450 Кбит/сек
Максимальный битрейт : 6000 Кбит/сек
Ширина : 1280 пикселей
Высота : 720 пикселей
Соотношение сторон : 16:9
Режим частоты кадров : Постоянный
Частота кадров : 23,976 (24000/1001) кадра/сек
Стандарт вещания : Component
Цветовое пространство : YUV
Субдискретизация насыщенности : 4:2:0
Битовая глубина : 8 бит
Тип развёртки : Прогрессивная
Бит/(Пиксели*Кадры) : 0.241
Размер потока : 2,24 Гбайт (91%)
Default : Да
Forced : Нет
Цветовой диапазон : Limited
Основные цвета : BT.709
Характеристики трансфера : BT.709
Коэффициенты матрицы : BT.709

Аудио
Идентификатор : 2
Формат : AC-3
Формат/Информация : Audio Coding 3
Расширение режима : CM (complete main)
Параметр Endianness формата : Big
Идентификатор кодека : A_AC3
Продолжительность : 1 ч. 0 м.
Вид битрейта : Постоянный
Битрейт : 384 Кбит/сек
Каналы : 2 канала
Расположение каналов : Front: L R
Частота : 48,0 КГц
Частота кадров : 31,250 кадров/сек (1536 spf)
Метод сжатия : С потерями
Размер потока : 165 Мбайт (7%)
Default : Да
Forced : Нет

pb.wtf



Скачать Зловещий Бонг 777 через торрент https://c.radikal.ru/c37/1905/5d/117c1b7050c9.jpg Скачать фильм Зловещий Бонг 777 через торрент бесплантно в хорошем качестве Описание: Эбби и компания отправляются в знаменитый город грехов и стяжательства - ... 9.3 10 4
Торрент: Зарегистрирован [2019-05-31 08:48] · скачан: 18 раз
Статус: T временная
Размер: 2.45 GB
Как cкачать? Как скачать Зловещий Бонг 777 через торрент | qTorrent

% Раздел Тема Автор DL S | L
T Фильмы (мультфильмы) cо спонсором показа (Новинки AVI/MKV) [ 1.37 GB ] Зловещий Бонг 777 / Evil Bong 777 [2018 WEB-DLRip] MVO ["Синема УС"] bober100 Скачать
1 | 0

28-11-2019 20:33  

Отключить всю рекламу на сайте

    Дорогой пользователь! Огромная просьба, поблагодарите релизера, оцените раздачу и оставьте свои комментарий, если Вы скачали Зловещий Бонг 777 через торрент бесплатно! Внесите свою лепту в развитие PiratBit!
    Комментировать посты могут только пользователи прошедшие не сложную регистрацию
    Показать сообщения:    

    Зловещий Бонг 777 через торрент
    Скачать бесплатно Зловещий Бонг 777
    Зловещий Бонг 777 скачать торрент
    Зловещий Бонг 777 смотреть онлайн
    Cкачать фильм Зловещий Бонг 777 бесплатно
    Зловещий Бонг 777 скачать торрент в хорошем качестве
    Зловещий Бонг 777 смотреть онлайн бесплатно в хорошем качестве


    Вы не можете начинать темы
    Вы не можете отвечать на сообщения
    Вы не можете редактировать свои сообщения
    Вы не можете удалять свои сообщения
    Вы не можете голосовать в опросах
    Вы не можете прикреплять файлы к сообщениям
    Вы можете скачивать файлы