Ссылка на приватное зеркало всего за 1$. Внимание количество ограничено!!!

OK

1+1

iTunes

мы

OK

1

WEB-DLRip

Джокер

Пифагор

Ведьмак / The Witcher сериал

Лицензия

ПШазам

ОК

Оно 2

iTunes

30
pack

Вам бонус

ВАЖНО

!!Акция!!

Alien_RageХит недели

RePack

Resident Evil 21

ИГРА 18+

pack

RePack

jed

!!Акция!!

Alien_Rage

RePack

fifa19

RePack

Assassins Creed: Odyssey

RePack

NEED FOR SPEED™ PAYBACK

4 сезон

9 сезон

Бесстыжие 9 сезон

Все сериалы

все сериалы на PB.wtf

RePack

FAR CRY 5
  

Женщина, которая ест / Taberu onna (Дзиро Сёно) [2018, драма, мелодрама, BDRip 720p] MVO ["Синема УС"] pb.wtf

Женщина, которая ест через торрент pb.wtf

Размер: 5.46 GB | Добавлен: 7 мес. назад | Торрент скачан:6 раз
Скачать  

31-05-2019 08:58 Женщина, которая ест Скачать торрент  

Женщина, которая ест / Taberu onnaГод выпуска: 2018
Страна: Япония
Жанр: драма, мелодрама
Продолжительность: 01:51:38
Перевод: Любительский (многоголосый) | "Синема УС"
Субтитры: отсутствуют

Режиссер: Дзиро Сёно

rating

В ролях:

Кёко Коидзуми, Эрика Савадзири, Ацуко Маэда, Элис Хиросэ, Ю Ямада, Мицу Дан, Фумия Эндо, Шарлотта Кейт Фокс, Хироюки Икэути, Хидэюки Касахара

Описание:

Фильм «Женщина, которая ест», основанный на одноименном романе, рассказывает о жизни восьми женщин в Японии, одна из которых американка. Эти женщины общаются между собой, едят, пьют, ходят на свидания с мужчинами и возлагают на это большие надежды.

Качество: BDRip 720p
Формат: MKV

Видео: h.264,6 552 Кбит/с, 1280x692
Аудио#1: Русский (AC3, 2 ch, 448 Кбит/с)
скриншот  скриншот  скриншот  

Общее
Уникальный идентификатор : 212815526605238824902175062016929866356 (0xA01AC78F68049C0481CBFE1FE81CA274)
Полное имя : C:\Eating.Woman.2O18.P.BDRip.72Op.mkv
Формат : Matroska
Версия формата : Version 2
Размер файла : 5,46 Гбайт
Продолжительность : 1 ч. 51 м.
Режим общего битрейта : Переменный
Общий поток : 7001 Кбит/сек
Дата кодирования : UTC 2019-05-30 14:22:27
Программа кодирования : mkvmerge v8.3.0 ('Over the Horizon') 64bit
Библиотека кодирования : libebml v1.3.1 + libmatroska v1.4.2

Видео
Идентификатор : 1
Формат : AVC
Формат/Информация : Advanced Video Codec
Профиль формата : High@L4.1
Параметр CABAC формата : Да
Параметр RefFrames формата : 4 кадра
Идентификатор кодека : V_MPEG4/ISO/AVC
Продолжительность : 1 ч. 51 м.
Вид битрейта : Переменный
Битрейт : 6552 Кбит/сек
Максимальный битрейт : 7500 Кбит/сек
Ширина : 1280 пикселей
Высота : 692 пикселя
Соотношение сторон : 1,85:1
Режим частоты кадров : Постоянный
Частота кадров : 23,976 (24000/1001) кадра/сек
Стандарт вещания : Component
Цветовое пространство : YUV
Субдискретизация насыщенности : 4:2:0
Битовая глубина : 8 бит
Тип развёртки : Прогрессивная
Бит/(Пиксели*Кадры) : 0.302
Размер потока : 5,00 Гбайт (92%)
Default : Да
Forced : Нет
Цветовой диапазон : Limited
Основные цвета : BT.709
Характеристики трансфера : BT.709
Коэффициенты матрицы : BT.709

Аудио
Идентификатор : 2
Формат : AC-3
Формат/Информация : Audio Coding 3
Расширение режима : CM (complete main)
Параметр Endianness формата : Big
Идентификатор кодека : A_AC3
Продолжительность : 1 ч. 51 м.
Вид битрейта : Постоянный
Битрейт : 448 Кбит/сек
Каналы : 2 канала
Расположение каналов : Front: L R
Частота : 48,0 КГц
Частота кадров : 31,250 кадров/сек (1536 spf)
Метод сжатия : С потерями
Размер потока : 358 Мбайт (6%)
Default : Да
Forced : Нет

pb.wtf



Скачать Женщина, которая ест через торрент https://d.radikal.ru/d25/1905/37/b26f2899fcae.jpg Скачать фильм Женщина, которая ест через торрент бесплантно в хорошем качестве Описание: Фильм «Женщина, которая ест», основанный на одноименном романе, рассказывает о жизни восьми женщин в Японии, одна из которых ... 10 10 2
Торрент: Зарегистрирован [2019-05-31 08:58] · скачан: 6 раз
Статус: # сомнительно
Размер: 5.46 GB
Как cкачать? Как скачать Женщина, которая ест через торрент | qTorrent

% Раздел Тема Автор DL S | L
T Фильмы (мультфильмы) cо спонсором показа (Новинки AVI/MKV) [ 1.37 GB ] Женщина которая ест / Taberu onna [2018 HDRip] MVO ["Синема УС"] bober100 Скачать
1 | 0

28-11-2019 20:33  

Отключить всю рекламу на сайте

    Дорогой пользователь! Огромная просьба, поблагодарите релизера, оцените раздачу и оставьте свои комментарий, если Вы скачали Женщина, которая ест через торрент бесплатно! Внесите свою лепту в развитие PiratBit!
    Комментировать посты могут только пользователи прошедшие не сложную регистрацию
    Показать сообщения:    

    Женщина, которая ест через торрент
    Скачать бесплатно Женщина, которая ест
    Женщина, которая ест скачать торрент
    Женщина, которая ест смотреть онлайн
    Cкачать фильм Женщина, которая ест бесплатно
    Женщина, которая ест скачать торрент в хорошем качестве
    Женщина, которая ест смотреть онлайн бесплатно в хорошем качестве


    Вы не можете начинать темы
    Вы не можете отвечать на сообщения
    Вы не можете редактировать свои сообщения
    Вы не можете удалять свои сообщения
    Вы не можете голосовать в опросах
    Вы не можете прикреплять файлы к сообщениям
    Вы можете скачивать файлы