Ссылка на приватное зеркало всего за 1$. Внимание количество ограничено!!!

OK

1+1

iTunes

мы

OK

1

WEB-DLRip

Джокер

Пифагор

Ведьмак / The Witcher сериал

Лицензия

ПШазам

ОК

Оно 2

iTunes

30
pack

Вам бонус

ВАЖНО

!!Акция!!

Alien_RageХит недели

RePack

Resident Evil 21

ИГРА 18+

pack

RePack

jed

!!Акция!!

Alien_Rage

RePack

fifa19

RePack

Assassins Creed: Odyssey

RePack

NEED FOR SPEED™ PAYBACK

4 сезон

9 сезон

Бесстыжие 9 сезон

Все сериалы

все сериалы на PB.wtf

RePack

FAR CRY 5
  

Хантер Киллер / Hunter Killer (Донован Марш) [2018, боевик, триллер, BD Remux 1080p] [US Transfer] DUB [Лицензия] pb.wtf

Хантер Киллер через торрент pb.wtf

Размер: 35.79 GB | Добавлен: 7 мес. назад | Торрент скачан:9 раз
Скачать  

31-05-2019 09:43 Хантер Киллер Скачать торрент  

Хантер Киллер / Hunter Killer
Год выпуска: 2018
Страна: США
Жанр: боевик, триллер
Продолжительность: 02:01:42
Перевод: Дублированный | Лицензия
Субтитры: Русские (Full), Английские

Режиссер: Донован Марш

rating

В ролях:

Джерард Батлер (Captain Joe Glass), Гари Олдман (CJCS Charles Donnegan), Коммон (RADM John Fisk), Зейн Холц (Paul Martinelli), Микаэл Нюквист (Captain Andropov), Тоби Стивенс (Bill Beaman), Линда Карделлини (Jayne Norquist), Этан Бейрд (Sonar 3), Джейкоб Скипио (Sonar 2), Демпси Бовелл (Sonar 1), Кори Джонсон (Captain), Адам Джеймс (Captain Forbes)
Описание:

Американская атакующая субмарина «Хантер Киллер» вместе с подразделением Военно-Морских сил США вступает в крайне рискованную боевую авантюру по спасению мира от катастрофы. Когда время на исходе и каждая минута на счету, элитной команде придется совершить невозможное, чтобы предотвратить конфликт мирового масштаба.

Качество: BD Remux 1080p | US Transfer
Формат: MKV

Видео: MPEG-4 AVC, 1920x1080, 34.4 Mbit/s, 23.976 fps
Аудио#1: 48 kHz, DTS-HD MA, 5.1, 3873 Kbps | Лицензия | RUS |
Аудио#2: 48 kHz, TrueHD, 7.1, 3556 Kbps | Оригинал | ENG |
Аудио#3: 48 kHz, AC3, 5.1, 224 Kbps | Оригинал | ENG |
скриншот  скриншот  скриншот  скриншот  скриншот  

General
Unique ID : 230504392132570379038650955911168389636 (0xAD6987F6F63EDBFAC196E6D15359F204)
Complete name : D:Video111Hunter.Killer.2018.BDREMUX.1080p.seleZen.mkv
Format : Matroska
Format version : Version 4
File size : 35.8 GiB
Duration : 2 h 1 min
Overall bit rate mode : Variable
Overall bit rate : 42.1 Mb/s
Movie name : Hunter Killer 2018 from селезень
Encoded date : UTC 2019-05-31 09:31:44
Writing application : mkvmerge v33.1.0 ('Primrose') 64-bit
Writing library : libebml v1.3.7 + libmatroska v1.5.0

Video
ID : 1
Format : AVC
Format/Info : Advanced Video Codec
Format profile : High@L4.1
Format settings : CABAC / 4 Ref Frames
Format settings, CABAC : Yes
Format settings, Reference : 4 frames
Codec ID : V_MPEG4/ISO/AVC
Duration : 2 h 1 min
Bit rate mode : Variable
Bit rate : 34.4 Mb/s
Maximum bit rate : 37.0 Mb/s
Width : 1 920 pixels
Height : 1 080 pixels
Display aspect ratio : 16:9
Frame rate mode : Constant
Frame rate : 23.976 (24000/1001) FPS
Color space : YUV
Chroma subsampling : 4:2:0
Bit depth : 8 bits
Scan type : Progressive
Bits/(Pixel*Frame) : 0.692
Stream size : 29.2 GiB (82%)
Language : English
Default : No
Forced : No

Audio #1
ID : 2
Format : DTS XLL
Format/Info : Digital Theater Systems
Commercial name : DTS-HD Master Audio
Codec ID : A_DTS
Duration : 2 h 1 min
Bit rate mode : Variable
Bit rate : 3 873 kb/s
Channel(s) : 6 channels
Channel layout : C L R Ls Rs LFE
Sampling rate : 48.0 kHz
Frame rate : 93.750 FPS (512 SPF)
Bit depth : 24 bits
Compression mode : Lossless
Stream size : 3.29 GiB (9%)
Title : Dub [License]
Language : Russian
Default : Yes
Forced : Yes

Audio #2
ID : 3
Format : MLP FBA 16-ch
Format/Info : Meridian Lossless Packing FBA with 16-channel presentation
Commercial name : Dolby TrueHD with Dolby Atmos
Codec ID : A_TRUEHD
Duration : 2 h 1 min
Bit rate mode : Variable
Bit rate : 3 556 kb/s
Maximum bit rate : 5 055 kb/s
Channel(s) : 8 channels
Channel layout : L R C LFE Ls Rs Lb Rb
Sampling rate : 48.0 kHz
Frame rate : 1 200.000 FPS (40 SPF)
Compression mode : Lossless
Stream size : 3.02 GiB (8%)
Title : Original
Language : English
Default : No
Forced : No
Number of dynamic objects : 15
Bed channel count : 1 channel
Bed channel configuration : LFE

Audio #3
ID : 4
Format : AC-3
Format/Info : Audio Coding 3
Commercial name : Dolby Digital
Codec ID : A_AC3
Duration : 2 h 1 min
Bit rate mode : Constant
Bit rate : 224 kb/s
Channel(s) : 6 channels
Channel layout : L R C LFE Ls Rs
Sampling rate : 48.0 kHz
Frame rate : 31.250 FPS (1536 SPF)
Bit depth : 16 bits
Compression mode : Lossy
Stream size : 195 MiB (1%)
Language : English
Service kind : Complete Main
Default : No
Forced : No

Text #1
ID : 5
Format : UTF-8
Codec ID : S_TEXT/UTF8
Codec ID/Info : UTF-8 Plain Text
Duration : 1 h 50 min
Bit rate : 74 b/s
Count of elements : 1171
Stream size : 60.6 KiB (0%)
Title : Full
Language : Russian
Default : No
Forced : No

Text #2
ID : 6
Format : UTF-8
Codec ID : S_TEXT/UTF8
Codec ID/Info : UTF-8 Plain Text
Duration : 1 h 49 min
Bit rate : 48 b/s
Count of elements : 1255
Stream size : 38.6 KiB (0%)
Title : Full
Language : English
Default : No
Forced : No

Text #3
ID : 7
Format : UTF-8
Codec ID : S_TEXT/UTF8
Codec ID/Info : UTF-8 Plain Text
Duration : 1 h 50 min
Bit rate : 55 b/s
Count of elements : 1525
Stream size : 44.9 KiB (0%)
Title : SDH
Language : English
Default : No
Forced : No

Menu
00:00:00.000 : :Chapter 01
00:06:19.629 : :Chapter 02
00:14:56.354 : :Chapter 03
00:20:00.449 : :Chapter 04
00:28:19.323 : :Chapter 05
00:38:31.184 : :Chapter 06
00:46:29.078 : :Chapter 07
00:54:15.752 : :Chapter 08
01:00:26.081 : :Chapter 09
01:09:39.967 : :Chapter 10
01:15:48.919 : :Chapter 11
01:23:29.087 : :Chapter 12
01:30:17.662 : :Chapter 13
01:39:23.249 : :Chapter 14
01:44:53.954 : :Chapter 15
01:51:35.689 : :Chapter 16

pb.wtf



Скачать Хантер Киллер через торрент https://a.radikal.ru/a21/1901/43/17501488588c.png Скачать фильм Хантер Киллер через торрент бесплантно в хорошем качестве Описание: Американская атакующая субмарина «Хантер Киллер» вместе с подразделением Военно-Морских сил США вступает в крайне рискованную ... 10 10 4
Торрент: Зарегистрирован [2019-05-31 09:43] · скачан: 9 раз
Статус: √ проверено
Размер: 35.79 GB
Как cкачать? Как скачать Хантер Киллер через торрент | qTorrent

% Раздел Тема Автор DL S | L
Фильмы 2018 [DVDrip, WEB-DLRip, HDrip] (DUB, MVO) [ 1.91 GB ] Хантер Киллер / Hunter Killer [2018 BDRip-AVC] DUB [] bober100 Скачать
2 | 0
Ultra HD (UHD: 2K, 4K, 8K) — видео сверхвысокой чёткости [ 59.35 GB ] Хантер Киллер / Hunter Killer [2018 UHD BDRemux 2160p] DUB [] bober100 Скачать
1 | 0
Фильмы [HD 720p, 1080p] (Хороший звук DUB, MVO) [ 5.86 GB ] Хантер Киллер / Hunter Killer [2018 BDRip 720p] DUB [] bober100 Скачать
2 | 0
Фильмы [HD 720p, 1080p] (Хороший звук DUB, MVO) [ 13.03 GB ] Хантер Киллер / Hunter Killer [2018 BDRip 1080p] DUB [] bober100 Скачать
1 | 0
Фильмы 2018 [DVDrip, WEB-DLRip, HDrip] (DUB, MVO) [ 2.18 GB ] Хантер Киллер / Hunter Killer [2018 BDRip] DUB [ Blu-Ray RUS] bober100 Скачать
1 | 0
Фильмы 2018 [DVDrip, WEB-DLRip, HDrip] (DUB, MVO) [ 1.46 GB ] Хантер Киллер / Hunter Killer [2018 BDRip] DUB [ Blu-Ray RUS] bober100 Скачать
3 | 0
Фильмы (Blu-ray, BD-Remux, HDDVD) [ 38.87 GB ] Хантер Киллер / Hunter Killer [2018 Blu-ray 1080p] [Rus Transfer] DUB [] bober100 Скачать
1 | 0

28-11-2019 20:33  

Отключить всю рекламу на сайте

    Дорогой пользователь! Огромная просьба, поблагодарите релизера, оцените раздачу и оставьте свои комментарий, если Вы скачали Хантер Киллер через торрент бесплатно! Внесите свою лепту в развитие PiratBit!
    Комментировать посты могут только пользователи прошедшие не сложную регистрацию
    Показать сообщения:    

    Хантер Киллер через торрент
    Скачать бесплатно Хантер Киллер
    Хантер Киллер скачать торрент
    Хантер Киллер смотреть онлайн
    Cкачать фильм Хантер Киллер бесплатно
    Хантер Киллер скачать торрент в хорошем качестве
    Хантер Киллер смотреть онлайн бесплатно в хорошем качестве


    Вы не можете начинать темы
    Вы не можете отвечать на сообщения
    Вы не можете редактировать свои сообщения
    Вы не можете удалять свои сообщения
    Вы не можете голосовать в опросах
    Вы не можете прикреплять файлы к сообщениям
    Вы можете скачивать файлы