Ссылка на приватное зеркало нашего сайта всего за 1$. Внимание количество ограничено!!!

2 сезон

iTunes

1 сезон

1

2 сезон

2 сезон

iTunes

1 сезон

RePack

30

Ultimate

ВАЖНО

ИГРА 18+

pack

RePack

MK11
pack

Забери бонус

RePack

jed

!!Акция!!

Alien_Rage

RePack

fifa19

RePack

Assassins Creed: Odyssey

RePack

NEED FOR SPEED™ PAYBACK

4 сезон

9 сезон

Бесстыжие 9 сезон

Все сериалы

все сериалы на PB.wtf

RePack

FAR CRY 5
  

Зона заражения / The Hot Zone / Сезон: 1 / Серии 1-6 из 6 (Майкл Аппендаль) [2019, фантастика, триллер, драма, WEB-DL 720p] [MVO] (Lostfilm) pb.wtf

Зона заражения через торрент pb.wtf

Качают: 1 [ 0 KB/s ]
Размер: 8.24 GB | Добавлен: 1 год 4 мес. назад | Торрент скачан:67 раз
Скачать  

31-05-2019 10:47 Зона заражения Скачать торрент  

Зона заражения | The Hot Zone
«In 1989, Ebola Landed on U.S. Soil. They Risked Everything to Contain It»

Производство: США
Год выпуска: 2019
Жанр: фантастика, триллер, драма
Продолжительность: ~ 00:46:00 серия
Перевод: Профессиональный (многоголосый закадровый) |LostFilm|
Режиссер: Майкл Аппендаль

В ролях: Лиам Каннингэм, Джеймс Д’Арси, Ноа Эммерих, Тофер Грейс, Пол Джеймс, Марк Келли, Роберт Шон Леонард, Джулианна Маргулис, Ленни Арройо-Платт, Ник Сирси
Описание сериала:
Мини-сериал, основанный на на одноименном романе Ричарда Престона, рассказывает о смертельно опасном вирусе Эбола, о его появлении на территории США и группе бесстрашных ученых, которые с риском для жизни пытались остановить распространение эпидемии.




Качество видео: WEB-DL 720p
Формат: MKV
Видео: AVC, 1280 x 640 (2.000), 23.976 fps, ~3316 kbps
Аудио Rus: AC-3, 48 kHz, 2 ch, 384 kbps |LostFilm|
Аудио Eng: E-AC-3, 48 kHz, 6 ch, 640 kbps |Original|
Субтитры: English (SDH)
Реклама: Отсутствует
Общее
Уникальный идентификатор : 306351691453417250144832783989245882825 (0xE679308A2CC5D067C7D5FAE4572231C9)
Полное имя : E:\_Сериалы\_Сериалы\Зона заражения\The.Hot.Zone.S01.WEB-DL.720р.LostFilm\The.Hot.Zone.S01E01.WEB-DL.720р.LostFilm.mkv
Формат : Matroska
Версия формата : Version 4
Размер файла : 1,40 Гбайт
Продолжительность : 46 м. 12 с.
Общий поток : 4342 Кбит/сек
Дата кодирования : UTC 2019-05-31 08:54:03
Программа кодирования : mkvmerge v34.0.0 ('Sight and Seen') 64-bit
Библиотека кодирования : libebml v1.3.7 + libmatroska v1.5.0

Видео
Идентификатор : 1
Формат : AVC
Формат/Информация : Advanced Video Codec
Профиль формата : High@L3.1
Настройки формата : CABAC / 4 Ref Frames
Параметр CABAC формата : Да
Параметр RefFrames формата : 4 кадра
Идентификатор кодека : V_MPEG4/ISO/AVC
Продолжительность : 46 м. 12 с.
Вид битрейта : Постоянный
Битрейт : 3316 Кбит/сек
Номинальный битрейт : 6000 Кбит/сек
Ширина : 1280 пикселей
Высота : 640 пикселей
Соотношение сторон : 2,000
Режим частоты кадров : Постоянный
Частота кадров : 23,976 (24000/1001) кадра/сек
Цветовое пространство : YUV
Субдискретизация насыщенности : 4:2:0
Битовая глубина : 8 бит
Тип развёртки : Прогрессивная
Бит/(Пиксели*Кадры) : 0.169
Размер потока : 1,07 Гбайт (76%)
Default : Да
Forced : Нет
Цветовой диапазон : Limited
Основные цвета : BT.709
Характеристики трансфера : BT.709
Коэффициенты матрицы : BT.709

Аудио #1
Идентификатор : 2
Формат : AC-3
Формат/Информация : Audio Coding 3
Коммерческое название : Dolby Digital
Идентификатор кодека : A_AC3
Продолжительность : 46 м. 11 с.
Вид битрейта : Постоянный
Битрейт : 384 Кбит/сек
Каналы : 2 канала
Channel layout : L R
Частота : 48,0 КГц
Частота кадров : 31,250 кадров/сек (1536 SPF)
Битовая глубина : 16 бит
Метод сжатия : С потерями
Размер потока : 127 Мбайт (9%)
Язык : Russian
ServiceKind/String : Complete Main
Default : Нет
Forced : Нет

Аудио #2
Идентификатор : 3
Формат : E-AC-3
Формат/Информация : Enhanced AC-3
Коммерческое название : Dolby Digital Plus
Идентификатор кодека : A_EAC3
Продолжительность : 46 м. 12 с.
Вид битрейта : Постоянный
Битрейт : 640 Кбит/сек
Каналы : 6 каналов
Channel layout : L R C LFE Ls Rs
Частота : 48,0 КГц
Частота кадров : 31,250 кадров/сек (1536 SPF)
Метод сжатия : С потерями
Размер потока : 212 Мбайт (15%)
Язык : English
ServiceKind/String : Complete Main
Default : Да
Forced : Нет

Текст #1
Идентификатор : 4
Формат : UTF-8
Идентификатор кодека : S_TEXT/UTF8
Идентификатор кодека/Информация : UTF-8 Plain Text
Продолжительность : 45 м. 38 с.
Битрейт : 61 бит/сек
ElementCount : 665
Размер потока : 20,4 Кбайт (0%)
Язык : English
Default : Нет
Forced : Нет

Текст #2
Идентификатор : 5
Формат : UTF-8
Идентификатор кодека : S_TEXT/UTF8
Идентификатор кодека/Информация : UTF-8 Plain Text
Продолжительность : 45 м. 56 с.
Битрейт : 60 бит/сек
ElementCount : 674
Размер потока : 20,4 Кбайт (0%)
Заголовок : SDH
Язык : English
Default : Нет
Forced : Нет

скриншот  скриншот  скриншот  

Раздача ведётся путём добавления новых серий; при каждом добавлении создаётся новый торрент.
Чтобы начать докачку новой серии, пользователям необходимо сделать следующее:
1. остановить скачивание,
2. удалить старый торрент у себя из клиента (старые серии удалять не надо),
3. скачать новый торрент и запустить его у себя в клиенте вместо старого, при этом указать клиенту путь в старую папку, куда и должно происходить скачивание новых серий.

Ваш клиент при этом должен произвести хеширование (проверку) старой папки (если не производит сам - помогите ему сделать это), и будет докачивать только те серии которых у вас ещё нет. Старые серии при этом не удаляются, а продолжают раздаваться!

Eсли вы уже удалили старые серии, то предотвратить повторную закачку старых серий можно, отжав галочку в соответствующих местах при запуске нового торрента. По возможности, желательно не удалять старые серии как можно дольше, чтобы релизёр не столько продолжал раздавать старые серии, а смог сконцентрироваться на новых.

Совет для тех, кто не хочет ждать перехеширования:
Создайте ещё одну папку рядом с папкой сериала (рядом, а не в ней!!!). Каждую новую серию после удачной загрузки копируйте в новую папку так чтобы ваша основная папка всегда была пуста. Когда ваш новый торрент предложит вам закачать все файлы, выберете только последнюю. Для сидирования же укажите адрес новой папки.

Как закачать отдельный файл из торрента или докачать ранее пропущенные файлы торрента!

1. Открыть торрент
2. Снять галки с тех файлов торрента, которые мы не хотим закачивать. Оставляем только на нужных нам файлах (файле).
3. Нажать О.К.

В клиенте utorrent

Инструкция

1) Открыть торрент


2) Снять галки с тех файлов торрента, которые мы не хотим закачивать:

* либо вручную, снимая с каждого файла галку( скрин №1)
* либо, нажав кнопку "Снять метки (Select None)", сняв сразу со всех файлов(скрин №2)
№1

№2

Оставляем только на нужных нам файлах (файле).

3)Нажать О.К

Приятного просмотра!!!pb.wtf



Скачать Зона заражения через торрент https://i6.imageban.ru/out/2019/05/31/d01bb9d72e8f30598b75d5ce5d091c5e.png Скачать фильм Зона заражения через торрент бесплантно в хорошем качестве Описание сериала:Мини-сериал, основанный на на одноименном романе Ричарда Престона, рассказывает о смертельно опасном вирусе Эбола, о его ... 7.2 10 5
Торрент: Зарегистрирован [2019-06-28 16:19] · скачан: 67 раз
Статус: √ проверено
Размер: 8.24 GB
Как cкачать? Как скачать Зона заражения через торрент | qTorrent

% Раздел Тема Автор DL S | L
Зарубежные сериалы [ 15.62 GB ] Горячая зона / Зона заражения / The Hot Zone / Сезон: 1 / Серии: 1-6 из 6 [2019 WEB-DL 1080p] MVO [TVShows] bober100 Скачать
1 | 0
Зарубежные сериалы [ 2.99 GB ] Зона заражения / The Hot Zone / Сезон: 1 / Серии 1-6 из 6 [2019 WEBRip] [MVO] killermax2013 Скачать
1 | 0
Зарубежные сериалы [ 16.12 GB ] Горячая зона / Зона заражения / The Hot Zone / Сезон: 1 / Серии: 1-6 из 6 [2019 WEB-DL 1080p] MVO [AMS] bober100 Скачать
1 | 0
Зарубежные сериалы [ 5.58 GB ] Горячая зона / Зона заражения / The Hot Zone / Сезон: 1 / Серии: 1-6 из 6 [2019 WEB-DLRip] MVO [AMS] bober100 Скачать
2 | 0
Зарубежные сериалы [ 3.87 GB ] Горячая зона / Зона заражения / The Hot Zone / Сезон: 1 / Серии: 1-6 из 6 [2019 WEB-DLRip] MVO [LostFilm] bober100 Скачать
1 | 0
Зарубежные сериалы [ 3.87 GB ] Зона заражения / The Hot Zone / Сезон: 1 / Серии: 1-6 из 6 [2019 . WEB-DLRip] [MVO] killermax2013 Скачать
1 | 0


Последний раз редактировалось: killermax2013 (2019-06-28 16:19), всего редактировалось 2 раз(а)

28-11-2019 20:33  

Отключить всю рекламу на сайте

31-05-2019 17:25 Зона заражения Скачать торрент  

Спасибо pb.wtf



    Дорогой пользователь! Огромная просьба, поблагодарите релизера, оцените раздачу и оставьте свои комментарий, если Вы скачали Зона заражения через торрент бесплатно! Внесите свою лепту в развитие PiratBit!
    Комментировать посты могут только пользователи прошедшие не сложную регистрацию
    Показать сообщения:    

    Зона заражения через торрент
    Скачать бесплатно Зона заражения
    Зона заражения скачать торрент
    Зона заражения смотреть онлайн
    Cкачать фильм Зона заражения бесплатно
    Зона заражения скачать торрент в хорошем качестве
    Зона заражения смотреть онлайн бесплатно в хорошем качестве


    Вы не можете начинать темы
    Вы не можете отвечать на сообщения
    Вы не можете редактировать свои сообщения
    Вы не можете удалять свои сообщения
    Вы не можете голосовать в опросах
    Вы не можете прикреплять файлы к сообщениям
    Вы можете скачивать файлы