Всегда рабочее зеркало без VPN и Proxy просто перед .vidak.icu напиши любое слово или цифру, Пример http://f3oy.vidak.icu

MVO

Лицензия

1 сезон

1

1 сезон

iTunes

1 сезон

13

1 сезон

Deluxe

pack

Рекомендуем

Repack

30

ВАЖНО

RePack

MK11

RePack

jed

RePack

fifa19

RePack

RDR2

RePack

NEED FOR SPEED™ PAYBACK

Кинопоиск HD

6 сезон

 Острые козырьки 6 сезон

Все сериалы

все сериалы на PB.wtf

RePack

FAR CRY 5
  
Magnet ссылка

Правило номер один / Rule number one (Линдси Ф. Эфеюку) [2018, Мелодрама, WEB-DL 720p] MVO ["Синема УС"] pb.wtf

Правило номер один через торрент pb.wtf

Размер: 4.52 GB | Добавлен: 3 года 1 мес. назад | Торрент скачан:2 раза
Смотреть онлайн Правило номер один | Скачать    Ребята, помогите собрать деньги на оплату серверов!!!

31-05-2019 11:44 Правило номер один Скачать торрент  

Правило номер один / Rule number oneГод выпуска: 2018
Страна: Нигерия
Жанр: Мелодрама
Продолжительность: 01:53:19
Перевод: Любительский (многоголосый) | "Синема УС"
Субтитры: отсутствуют

Режиссер: Линдси Ф. Эфеюку

rating

В ролях: Буччи Франклин, Прие Джордж, Кира Хьюч

Описание: Стэфани и Тэга дружат с малых лет. Они всё делают вместе, и даже никогда серьёзно не ссорились. Это история о двух лучших подругах и одном парне, происходящая в Нигерии.

Качество: WEB-DL 720p
Формат: MKV

Видео: h.264,5 330 Кбит/с, 1280x530
Аудио: Русский, (AC3, 2 ch, 384 Кбит/с)
скриншот  скриншот  скриншот  

Общее
Уникальный идентификатор : 198188312322569679919047742017962135823 (0x9519AE376879F367882A03D8D0DA510F)
Полное имя : D:\Rule.number.one.2018.P.WEB_DL.72Op.mkv
Формат : Matroska
Версия формата : Version 2
Размер файла : 4,52 Гбайт
Продолжительность : 1 ч. 53 м.
Режим общего битрейта : Переменный
Общий поток : 5716 Кбит/сек
Дата кодирования : UTC 2019-05-30 14:33:50
Программа кодирования : mkvmerge v8.3.0 ('Over the Horizon') 64bit
Библиотека кодирования : libebml v1.3.1 + libmatroska v1.4.2

Видео
Идентификатор : 1
Формат : AVC
Формат/Информация : Advanced Video Codec
Профиль формата : [email protected]
Параметр CABAC формата : Да
Параметр RefFrames формата : 4 кадра
Идентификатор кодека : V_MPEG4/ISO/AVC
Продолжительность : 1 ч. 53 м.
Вид битрейта : Переменный
Битрейт : 5330 Кбит/сек
Максимальный битрейт : 6000 Кбит/сек
Ширина : 1280 пикселей
Высота : 530 пикселей
Соотношение сторон : 2,40:1
Режим частоты кадров : Постоянный
Частота кадров : 23,976 (24000/1001) кадра/сек
Стандарт вещания : Component
Цветовое пространство : YUV
Субдискретизация насыщенности : 4:2:0
Битовая глубина : 8 бит
Тип развёртки : Прогрессивная
Бит/(Пиксели*Кадры) : 0.321
Размер потока : 4,13 Гбайт (91%)
Default : Да
Forced : Нет
Цветовой диапазон : Limited
Основные цвета : BT.709
Характеристики трансфера : BT.709
Коэффициенты матрицы : BT.709

Аудио
Идентификатор : 2
Формат : AC-3
Формат/Информация : Audio Coding 3
Расширение режима : CM (complete main)
Параметр Endianness формата : Big
Идентификатор кодека : A_AC3
Продолжительность : 1 ч. 53 м.
Вид битрейта : Постоянный
Битрейт : 384 Кбит/сек
Каналы : 2 канала
Расположение каналов : Front: L R
Частота : 48,0 КГц
Частота кадров : 31,250 кадров/сек (1536 spf)
Метод сжатия : С потерями
Размер потока : 311 Мбайт (7%)
Default : Да
Forced : Нет

pb.wtf



Скачать Правило номер один через торрент https://c.radikal.ru/c00/1905/74/0402915b73b6.jpg Скачать, смотреть онлайн Правило номер один бесплантно в хорошем качестве Описание: Стэфани и Тэга дружат с малых лет. Они всё делают вместе, и даже никогда серьёзно не ссорились. Это история о двух лучших ... 10 10 2
Торрент: Зарегистрирован [2019-05-31 11:44] · скачан: 2 раз
Статус: T временная
Размер: 4.52 GB
Как cкачать? Как скачать Правило номер один через торрент | UTorrent

% Раздел Тема Автор DL S | L
T Фильмы (мультфильмы) cо спонсором показа (Новинки AVI/MKV) [ 1.52 GB ] Правило номер один / Rule number one [2018 Мело WEB-DLRip] MVO ["Синема УС"] bober100 Скачать
1 | 0

28-11-2019 20:33  

Отключить всю рекламу на сайте

    Дорогой пользователь! Огромная просьба, поблагодарите релизера, оцените раздачу и оставьте свои комментарий, если Вы скачали Правило номер один через торрент бесплатно!
    Комментировать посты могут только пользователи прошедшие не сложную регистрацию
    Показать сообщения:    

    Правило номер один через торрент
    Скачать бесплатно Правило номер один
    Правило номер один скачать торрент
    Правило номер один смотреть онлайн
    Cкачать фильм Правило номер один бесплатно
    Правило номер один скачать торрент в хорошем качестве
    Правило номер один смотреть онлайн бесплатно в хорошем качестве


    Вы не можете начинать темы
    Вы не можете отвечать на сообщения
    Вы не можете редактировать свои сообщения
    Вы не можете удалять свои сообщения
    Вы не можете голосовать в опросах
    Вы не можете прикреплять файлы к сообщениям
    Вы можете скачивать файлы