Ссылка на приватное зеркало всего за 1$. Внимание количество ограничено!!!

iTunes

iTunes

iTunes

1

iTunes

iTunes

iTunes

WEBRip

iTunes

30
pack

$ от Little Big

ВАЖНО

!!Акция!!

Alien_RageХит недели

RePack

Resident Evil 21

ИГРА 18+

pack

RePack

jed

!!Акция!!

Alien_Rage

RePack

fifa19

RePack

Assassins Creed: Odyssey

RePack

NEED FOR SPEED™ PAYBACK

4 сезон

9 сезон

Бесстыжие 9 сезон

Все сериалы

все сериалы на PB.wtf

RePack

FAR CRY 5
  

Неизвестный случай с братьями Баш / The Unauthorized Bash Brothers Experience (Майкл Дальквист, Акива Шаффер) [2019, короткометражка, комедия, музыка, WEB-DL 720p] MVO ["Синема УС"] pb.wtf

Неизвестный случай с братьями Баш через торрент pb.wtf

Размер: 1.23 GB | Добавлен: 1 год 2 мес. назад | Торрент скачан:14 раз
Скачать  

31-05-2019 12:37 Неизвестный случай с братьями Баш Скачать торрент  

Неизвестный случай с братьями Баш / The Unauthorized Bash Brothers Experience Год выпуска: 2019
Страна: США
Жанр: короткометражка, комедия, музыка
Продолжительность: 00:30:46
Перевод: Любительский (многоголосый) | "Синема УС"
Субтитры: отсутствуют

Режиссер: Майкл Дальквист, Акива Шаффер

rating

В ролях: Стефани Беатриз, Стерлинг К. Браун, Хаим, Алана Хаим, Даниэль Хаим, Эсте Хаим, Джонетта Кайзер, Джим О'Хейр, Майя Рудольф, Энди Сэмберг

Описание: «Одинокий остров» подделывает печально известных звезд бейсбола Хосе Кансеко и Марка МакГвайра в этом визуальном рэп-альбоме, выпущенном в период расцвета Bash Brothers 1980-х годов.

Качество: WEB-DL 720p
Формат: MKV

Видео: h.264,5 335 Кбит/с, 1280x720
Аудио#1: Русский, (AC3, 2 ch, 384 Кбит/с)
скриншот  скриншот  скриншот  

Общее
Уникальный идентификатор : 184274548793745694173170090824801853696 (0x8AA1FCB5EE1759AF9D3F805F0D322100)
Полное имя : D:\The.Unauthorized.Bash.Brothers.Experience.2019.P.WEB-DL.72Op.mkv
Формат : Matroska
Версия формата : Version 2
Размер файла : 1,23 Гбайт
Продолжительность : 30 м. 46 с.
Режим общего битрейта : Переменный
Общий поток : 5721 Кбит/сек
Дата кодирования : UTC 2019-05-29 13:50:45
Программа кодирования : mkvmerge v8.3.0 ('Over the Horizon') 64bit
Библиотека кодирования : libebml v1.3.1 + libmatroska v1.4.2

Видео
Идентификатор : 1
Формат : AVC
Формат/Информация : Advanced Video Codec
Профиль формата : High@L4.1
Параметр CABAC формата : Да
Параметр RefFrames формата : 4 кадра
Идентификатор кодека : V_MPEG4/ISO/AVC
Продолжительность : 30 м. 46 с.
Вид битрейта : Переменный
Битрейт : 5335 Кбит/сек
Максимальный битрейт : 6000 Кбит/сек
Ширина : 1280 пикселей
Высота : 720 пикселей
Соотношение сторон : 16:9
Режим частоты кадров : Постоянный
Частота кадров : 23,976 (24000/1001) кадра/сек
Стандарт вещания : Component
Цветовое пространство : YUV
Субдискретизация насыщенности : 4:2:0
Битовая глубина : 8 бит
Тип развёртки : Прогрессивная
Бит/(Пиксели*Кадры) : 0.236
Размер потока : 1,12 Гбайт (91%)
Default : Да
Forced : Нет
Цветовой диапазон : Limited
Основные цвета : BT.709
Характеристики трансфера : BT.709
Коэффициенты матрицы : BT.709

Аудио
Идентификатор : 2
Формат : AC-3
Формат/Информация : Audio Coding 3
Расширение режима : CM (complete main)
Параметр Endianness формата : Big
Идентификатор кодека : A_AC3
Продолжительность : 30 м. 46 с.
Вид битрейта : Постоянный
Битрейт : 384 Кбит/сек
Каналы : 2 канала
Расположение каналов : Front: L R
Частота : 48,0 КГц
Частота кадров : 31,250 кадров/сек (1536 spf)
Метод сжатия : С потерями
Размер потока : 84,5 Мбайт (7%)
Default : Да
Forced : Нет

pb.wtf



Скачать Неизвестный случай с братьями Баш через торрент https://d.radikal.ru/d38/1905/59/16a70047f559.jpg Скачать фильм Неизвестный случай с братьями Баш через торрент бесплантно в хорошем качестве Описание: «Одинокий остров» подделывает печально известных звезд бейсбола Хосе Кансеко и Марка МакГвайра в этом визуальном рэп-альбоме, ... 10 10 2
Торрент: Зарегистрирован [2019-05-31 12:37] · скачан: 14 раз
Статус: T временная
Размер: 1.23 GB
Как cкачать? Как скачать Неизвестный случай с братьями Баш через торрент | qTorrent

% Раздел Тема Автор DL S | L
T Фильмы (мультфильмы) cо спонсором показа (Новинки AVI/MKV) [ 500 MB ] Неизвестный случай с братьями Баш / The Unauthorized Bash Brothers Experience [2019 короткометражка музыка WEB-DLRip] MVO ["Синема УС"] bober100 Скачать
1 | 0

28-11-2019 20:33  

Отключить всю рекламу на сайте

    Дорогой пользователь! Огромная просьба, поблагодарите релизера, оцените раздачу и оставьте свои комментарий, если Вы скачали Неизвестный случай с братьями Баш через торрент бесплатно! Внесите свою лепту в развитие PiratBit!
    Комментировать посты могут только пользователи прошедшие не сложную регистрацию
    Показать сообщения:    

    Неизвестный случай с братьями Баш через торрент
    Скачать бесплатно Неизвестный случай с братьями Баш
    Неизвестный случай с братьями Баш скачать торрент
    Неизвестный случай с братьями Баш смотреть онлайн
    Cкачать фильм Неизвестный случай с братьями Баш бесплатно
    Неизвестный случай с братьями Баш скачать торрент в хорошем качестве
    Неизвестный случай с братьями Баш смотреть онлайн бесплатно в хорошем качестве


    Вы не можете начинать темы
    Вы не можете отвечать на сообщения
    Вы не можете редактировать свои сообщения
    Вы не можете удалять свои сообщения
    Вы не можете голосовать в опросах
    Вы не можете прикреплять файлы к сообщениям
    Вы можете скачивать файлы