Ссылка на приватное зеркало нашего сайта всего за 1$. Внимание количество ограничено!!!

2 сезон

iTunes

1 сезон

1

2 сезон

2 сезон

iTunes

1 сезон

RePack

30

Ultimate

ВАЖНО

ИГРА 18+

pack

RePack

MK11
pack

Забери бонус

RePack

jed

!!Акция!!

Alien_Rage

RePack

fifa19

RePack

Assassins Creed: Odyssey

RePack

NEED FOR SPEED™ PAYBACK

4 сезон

9 сезон

Бесстыжие 9 сезон

Все сериалы

все сериалы на PB.wtf

RePack

FAR CRY 5
  

Плащ и Кинжал / Cloak & Dagger / Сезон: 2 / Серии: 1-10 из 10 (Джина Принс-Байтвуд) [2019, Драма, боевик, фантастика, приключения, WEB-DLRip] MVO [Octopus] pb.wtf

Плащ и Кинжал через торрент pb.wtf

Размер: 5.76 GB | Добавлен: 1 год 5 мес. назад | Торрент скачан:9 раз
Скачать  

31-05-2019 13:35 Плащ и Кинжал Скачать торрент  

Плащ и Кинжал / Cloak & Dagger

Год выпуска: 2019
Страна: США
Жанр: Драма, боевик, фантастика, приключения
Продолжительность: ~ 00:44:00
Перевод: Любительский (многоголосый закадровый) | Octopus
Субтитры: отсутствуют

Режиссёр: Джина Принс-Байтвуд

В ролях:

Дерик Августин, Ноэль Рени Берси, Маркус Клэй, Митч Крафт, Майкл Винсент Донован, Дж.Д. Эвермор, Брайан Майкл Холл, Шон Брэдли Хофер, Оливия Холт, Обри Джозеф

Описание:

Межрасовая любовная история повествует о двух подростках, которые обнаруживают у себя новые суперспособности — Тэнди может излучать световые кинжалы, а Тайрон способен облачать людей во тьму. Они быстро понимают, что вместе им лучше, чем порознь, но их чувства по отношению друг к другу делают их уже сложный мир еще более запутанным..



Качество: WEB-DLRip
Формат: AVI

Видео: XviD, ~ 1700 Кбит/с, 720x400
Аудио: Русский (AC3, 2 ch, 128 Кбит/с)
скриншот  скриншот  скриншот  

Общее
Полное имя : D:\Cloak.Dagger.s02.400p.Octopus\Cloak.Dagger.s02e01.400p.Octopus.avi
Формат : AVI
Формат/Информация : Audio Video Interleave
Размер файла : 632 Мбайт
Продолжительность : 43 м. 9 с.
Общий поток : 2047 Кбит/сек
Программа кодирования : VirtualDubMod 1.5.10.3 | www.virtualdub-fr.org || (build 2550/release)
Библиотека кодирования : VirtualDubMod build 2550/release

Видео
Идентификатор : 0
Формат : MPEG-4 Visual
Профиль формата : Advanced Simple@L5
Параметр BVOP формата : 2
Параметр QPel формата : Нет
Параметр GMC формата : Без точки перехода
Параметр матрицы формата : Default (MPEG)
Идентификатор кодека : XVID
Идентификатор кодека/Подсказка : XviD
Продолжительность : 43 м. 9 с.
Битрейт : 1829 Кбит/сек
Ширина : 720 пикселей
Высота : 400 пикселей
Соотношение сторон : 16:9
Частота кадров : 23,976 (24000/1001) кадра/сек
Цветовое пространство : YUV
Субдискретизация насыщенности : 4:2:0
Битовая глубина : 8 бит
Тип развёртки : Прогрессивная
Метод сжатия : С потерями
Бит/(Пиксели*Кадры) : 0.265
Размер потока : 564 Мбайт (89%)
Библиотека кодирования : XviD 1.2.1 (UTC 2008-12-04)

Аудио
Идентификатор : 1
Формат : AC-3
Формат/Информация : Audio Coding 3
Расширение режима : CM (complete main)
Параметр Endianness формата : Big
Идентификатор кодека : 2000
Продолжительность : 43 м. 9 с.
Вид битрейта : Постоянный
Битрейт : 128 Кбит/сек
Каналы : 2 канала
Расположение каналов : Front: L R
Частота : 48,0 КГц
Частота кадров : 31,250 кадров/сек (1536 spf)
Метод сжатия : С потерями
Размер потока : 39,5 Мбайт (6%)
Выравнивание : Разделение по промежуткам

pb.wtf



Скачать Плащ и Кинжал через торрент http://b.radikal.ru/b41/1806/64/370dbbcc9aa0.jpg Скачать фильм Плащ и Кинжал через торрент бесплантно в хорошем качестве Описание: Межрасовая любовная история повествует о двух подростках, которые обнаруживают у себя новые суперспособности — Тэнди может ... 7.8 10 4
Торрент: Зарегистрирован [2019-05-31 13:35] · скачан: 9 раз
Статус: √ проверено
Размер: 5.76 GB
Как cкачать? Как скачать Плащ и Кинжал через торрент | qTorrent

28-11-2019 20:33  

Отключить всю рекламу на сайте

14-06-2019 07:22 Плащ и Кинжал Скачать торрент  

Кароче я скачал начал смотреть и заплакал, как будто телевизор включил, реклама на пол экрана, потом глухой барабанщик начал орать на пол района, ну на3 ща перекачаю.pb.wtf



    Дорогой пользователь! Огромная просьба, поблагодарите релизера, оцените раздачу и оставьте свои комментарий, если Вы скачали Плащ и Кинжал через торрент бесплатно! Внесите свою лепту в развитие PiratBit!
    Комментировать посты могут только пользователи прошедшие не сложную регистрацию
    Показать сообщения:    

    Плащ и Кинжал через торрент
    Скачать бесплатно Плащ и Кинжал
    Плащ и Кинжал скачать торрент
    Плащ и Кинжал смотреть онлайн
    Cкачать фильм Плащ и Кинжал бесплатно
    Плащ и Кинжал скачать торрент в хорошем качестве
    Плащ и Кинжал смотреть онлайн бесплатно в хорошем качестве


    Вы не можете начинать темы
    Вы не можете отвечать на сообщения
    Вы не можете редактировать свои сообщения
    Вы не можете удалять свои сообщения
    Вы не можете голосовать в опросах
    Вы не можете прикреплять файлы к сообщениям
    Вы можете скачивать файлы