Ссылка на приватное зеркало нашего сайта всего за 1$. Внимание количество ограничено!!!

2 сезон

iTunes

1 сезон

1

2 сезон

2 сезон

iTunes

1 сезон

RePack

30

Новинка

ВАЖНО

ИГРА 18+

pack

RePack

MK11
pack

Забери бонус

RePack

jed

!!Акция!!

Alien_Rage

RePack

fifa19

RePack

Assassins Creed: Odyssey

RePack

NEED FOR SPEED™ PAYBACK

4 сезон

9 сезон

Бесстыжие 9 сезон

Все сериалы

все сериалы на PB.wtf

RePack

FAR CRY 5
  

Плащ и Кинжал / Cloak & Dagger / Сезон: 2 / Серии: 1-10 из 10 (Джина Принс-Байтвуд) [2019, Драма, боевик, фантастика, приключения, WEB-DL 720p] MVO [Octopus] pb.wtf

Плащ и Кинжал через торрент pb.wtf

Размер: 14.78 GB | Добавлен: 1 год 6 мес. назад | Торрент скачан:5 раз
Скачать  

31-05-2019 13:35 Плащ и Кинжал Скачать торрент  

Плащ и Кинжал / Cloak & Dagger

Год выпуска: 2019
Страна: США
Жанр: Драма, боевик, фантастика, приключения
Продолжительность: ~ 00:44:00
Перевод: Любительский (многоголосый закадровый) | Octopus
Субтитры: отсутствуют

Режиссёр: Джина Принс-Байтвуд

В ролях:

Дерик Августин, Ноэль Рени Берси, Маркус Клэй, Митч Крафт, Майкл Винсент Донован, Дж.Д. Эвермор, Брайан Майкл Холл, Шон Брэдли Хофер, Оливия Холт, Обри Джозеф

Описание:

Межрасовая любовная история повествует о двух подростках, которые обнаруживают у себя новые суперспособности — Тэнди может излучать световые кинжалы, а Тайрон способен облачать людей во тьму. Они быстро понимают, что вместе им лучше, чем порознь, но их чувства по отношению друг к другу делают их уже сложный мир еще более запутанным..



Качество: WEB-DL 720p
Формат: MKV

Видео: ~ 5 000 Кбит/с, 1280x720
Аудио: Русский, (AC3, 2 ch, 224 Кбит/с)
скриншот  скриншот  скриншот  

Общее
Уникальный идентификатор : 247433192641609432272654749873439893559 (0xBA25E6454385CA41B0E7FE2AE85DE837)
Полное имя : D:\Cloak.Dagger.sO2.720p.Octopus\Cloak.Dagger.s02e01.720p.Octopus.mkv
Формат : Matroska
Версия формата : Version 4 / Version 2
Размер файла : 1,55 Гбайт
Продолжительность : 43 м. 9 с.
Режим общего битрейта : Переменный
Общий поток : 5158 Кбит/сек
Дата кодирования : UTC 2019-04-04 21:09:03
Программа кодирования : TMPGEnc Video Mastering Works 6 Version. 6.2.10.37
Библиотека кодирования : TMPGEnc Video Mastering Works 6 Version. 6.2.10.37

Видео
Идентификатор : 2
Формат : AVC
Формат/Информация : Advanced Video Codec
Профиль формата : High@L3.2
Параметр CABAC формата : Да
Параметр RefFrames формата : 5 кадров
Идентификатор кодека : V_MPEG4/ISO/AVC
Продолжительность : 43 м. 9 с.
Вид битрейта : Переменный
Битрейт : 5000 Кбит/сек
Максимальный битрейт : 22,0 Мбит/сек
Ширина : 1280 пикселей
Высота : 720 пикселей
Соотношение сторон : 16:9
Режим частоты кадров : Постоянный
Частота кадров : 23,976 (24000/1001) кадра/сек
Стандарт вещания : Component
Цветовое пространство : YUV
Субдискретизация насыщенности : 4:2:0
Битовая глубина : 8 бит
Тип развёртки : Прогрессивная
Бит/(Пиксели*Кадры) : 0.226
Размер потока : 1,46 Гбайт (94%)
Библиотека кодирования : x264 core 148
Настройки программы : cabac=1 / ref=5 / deblock=1:0:0 / analyse=0x3:0x113 / me=hex / subme=7 / psy=1 / psy_rd=1.00:0.00 / mixed_ref=1 / me_range=16 / chroma_me=1 / trellis=1 / 8x8dct=1 / cqm=1 / deadzone=21,11 / fast_pskip=1 / chroma_qp_offset=-2 / threads=12 / lookahead_threads=2 / sliced_threads=0 / slices=1 / nr=0 / decimate=1 / interlaced=0 / minigop=0 / stitchable=1 / constrained_intra=0 / bframes=3 / b_pyramid=0 / b_adapt=1 / b_bias=0 / direct=1 / weightb=1 / open_gop=1 / weightp=2 / keyint=250 / keyint_min=23 / scenecut=40 / intra_refresh=0 / rc_lookahead=40 / rc=abr / mbtree=1 / bitrate=5000 / ratetol=1.0 / qcomp=0.60 / qpmin=3 / qpmax=69 / qpstep=4 / vbv_maxrate=22000 / vbv_bufsize=22000 / nal_hrd=vbr / filler=0 / ip_ratio=1.40 / aq=1:1.00
Default : Да
Forced : Нет
Цветовой диапазон : Limited
Основные цвета : BT.709
Характеристики трансфера : BT.709
Коэффициенты матрицы : BT.709

Аудио
Идентификатор : 1
Формат : AC-3
Формат/Информация : Audio Coding 3
Расширение режима : CM (complete main)
Параметр Endianness формата : Big
Идентификатор кодека : A_AC3
Продолжительность : 43 м. 9 с.
Вид битрейта : Постоянный
Битрейт : 224 Кбит/сек
Каналы : 2 канала
Расположение каналов : Front: L R
Частота : 48,0 КГц
Частота кадров : 31,250 кадров/сек (1536 spf)
Метод сжатия : С потерями
Размер потока : 69,1 Мбайт (4%)
Default : Да
Forced : Нет

pb.wtf



Скачать Плащ и Кинжал через торрент http://b.radikal.ru/b41/1806/64/370dbbcc9aa0.jpg Скачать фильм Плащ и Кинжал через торрент бесплантно в хорошем качестве Описание: Межрасовая любовная история повествует о двух подростках, которые обнаруживают у себя новые суперспособности — Тэнди может ... 10 10 3
Торрент: Зарегистрирован [2019-05-31 13:35] · скачан: 5 раз
Статус: √ проверено
Размер: 14.78 GB
Как cкачать? Как скачать Плащ и Кинжал через торрент | qTorrent

28-11-2019 20:33  

Отключить всю рекламу на сайте

    Дорогой пользователь! Огромная просьба, поблагодарите релизера, оцените раздачу и оставьте свои комментарий, если Вы скачали Плащ и Кинжал через торрент бесплатно! Внесите свою лепту в развитие PiratBit!
    Комментировать посты могут только пользователи прошедшие не сложную регистрацию
    Показать сообщения:    

    Плащ и Кинжал через торрент
    Скачать бесплатно Плащ и Кинжал
    Плащ и Кинжал скачать торрент
    Плащ и Кинжал смотреть онлайн
    Cкачать фильм Плащ и Кинжал бесплатно
    Плащ и Кинжал скачать торрент в хорошем качестве
    Плащ и Кинжал смотреть онлайн бесплатно в хорошем качестве


    Вы не можете начинать темы
    Вы не можете отвечать на сообщения
    Вы не можете редактировать свои сообщения
    Вы не можете удалять свои сообщения
    Вы не можете голосовать в опросах
    Вы не можете прикреплять файлы к сообщениям
    Вы можете скачивать файлы