Ссылка на приватное зеркало нашего сайта всего за 1$. Внимание количество ограничено!!!

2 сезон

iTunes

1 сезон

1

iTunes

iTunes

iTunes

1 сезон

RePack

30

ИГРА 18+

pack

ВАЖНО

!!Акция!!

Alien_RageХит недели

RePack

MK11
pack

Забери бонус

RePack

jed

!!Акция!!

Alien_Rage

RePack

fifa19

RePack

Assassins Creed: Odyssey

RePack

NEED FOR SPEED™ PAYBACK

4 сезон

9 сезон

Бесстыжие 9 сезон

Все сериалы

все сериалы на PB.wtf

RePack

FAR CRY 5
  

Всё могло быть иначе / Сезон: 1 / Серии: 1-16 из 16 (Глеб Якубовский) [2019, Мелодрама, HDTV 1080p] pb.wtf

Всё могло быть иначе через торрент pb.wtf

Размер: 41.38 GB | Добавлен: 1 год 4 мес. назад | Торрент скачан:7 раз
Скачать  

31-05-2019 14:25 Всё могло быть иначе Скачать торрент  

Всё могло быть иначе Год выпуска: 2019
Страна: Россия
Жанр: Мелодрама
Продолжительность: ~ 00:53:00
Субтитры: отсутствуют

Режиссер: Глеб Якубовский



В ролях:

Денис Васильев, Татьяна Бабенкова, Ангелина Поплавская, Алёна Хмельницкая, Олег Масленников-Войтов, Артур Сопельник, Борис Невзоров, Александр Макогон, Виталий Егоров, Андрей Сенькин, Олег Ткачёв, Вероника Норина

Описание:

В начале 90-х годов в провинциальном городке Татьяна неожиданно рожает тройняшек. Женщина вынуждена забрать только одну девочку, Машу, оставив остальных в роддоме. Вторую малышку, Юлю, забирает Ольга, которая снова родила мертвого ребенка. А третью девочку, Нику, удочеряет богатая московская пара. 20 лет спустя чудовищное стечение обстоятельств сталкивает сестер Машу и Нику, не подозревающих о существовании друг друга, в ДТП на дороге. Маша погибает на месте, а Ника, севшая пьяной за руль, сбегает. Жених Маши, Влад, клянется разыскать и посадить убийцу своей невесты…

Релиз от:

Качество: HDTV 1080p
Формат: MKV

Видео: AVC, 1920x1080 (16:9), 25.000 fps, 7 051 Kbps (0.119 bit/pixel)
Аудио: AC3 / 2.0 / 48.0 kHz / 192 kbps /
скриншот  скриншот  скриншот  скриншот  скриншот  

скриншот  скриншот  скриншот  скриншот  скриншот  

General
Unique ID : 193529710481719535717085811514502247003 (0x919877699076DDBD84791F0CD1FF725B)
Complete name : E:Запись с твVsyo moglo byt inache 2019 HDTV 1080p.R.G.GeneralfilmVsyo moglo byt inache.s01.e02.2019.HDTV 1080p.by.White Smoke.R.G.Generalfilm.mkv
Format : Matroska
Format version : Version 4 / Version 2
File size : 2.43 GiB
Duration : 53 min 47 s
Overall bit rate mode : Constant
Overall bit rate : 6 466 kb/s
Movie name : Vsyo moglo byt inache.s01.e02.2019.HDTV 1080p.by.White Smoke.R.G.Generalfilm.mkv
Encoded date : UTC 2019-05-21 09:57:01
Writing application : mkvmerge v6.8.0 ('Theme for Great Cities') 64bit built on Mar 2 2014 21:34:26
Writing library : libebml v1.3.0 + libmatroska v1.4.1
Cover : Yes
Attachments : cover.jpg

Video
ID : 1
Format : AVC
Format/Info : Advanced Video Codec
Format profile : High@L4.1
Format settings : CABAC / 3 Ref Frames
Format settings, CABAC : Yes
Format settings, ReFrames : 3 frames
Codec ID : V_MPEG4/ISO/AVC
Duration : 53 min 47 s
Bit rate mode : Constant
Bit rate : 6 146 kb/s
Nominal bit rate : 7 051 kb/s
Width : 1 920 pixels
Height : 1 080 pixels
Display aspect ratio : 16:9
Frame rate mode : Constant
Frame rate : 25.000 FPS
Standard : PAL
Color space : YUV
Chroma subsampling : 4:2:0
Bit depth : 8 bits
Scan type : Progressive
Bits/(Pixel*Frame) : 0.119
Stream size : 2.31 GiB (95%)
Default : No
Forced : No
Color range : Limited
Color primaries : BT.709
Transfer characteristics : BT.709
Matrix coefficients : BT.709

Audio
ID : 2
Format : AC-3
Format/Info : Audio Coding 3
Commercial name : Dolby Digital
Codec ID : A_AC3
Duration : 53 min 47 s
Bit rate mode : Constant
Bit rate : 192 kb/s
Channel(s) : 2 channels
Channel layout : L R
Sampling rate : 48.0 kHz
Frame rate : 31.250 FPS (1536 SPF)
Bit depth : 16 bits
Compression mode : Lossy
Stream size : 73.9 MiB (3%)
Service kind : Complete Main
Default : Yes
Forced : No

pb.wtf



Скачать Всё могло быть иначе через торрент https://i109.fastpic.ru/big/2019/0520/75/b814708964c8f47fa3aa435402120975.jpg Скачать фильм Всё могло быть иначе через торрент бесплантно в хорошем качестве Описание: В начале 90-х годов в провинциальном городке Татьяна неожиданно рожает тройняшек. Женщина вынуждена забрать только одну девочку, ... 10 10 3
Info! Золотая раздача, скачанное не засчитывается.
Торрент: Зарегистрирован [2019-05-31 14:25] · скачан: 7 раз
Статус: √ проверено
Размер: 41.38 GB
Как cкачать? Как скачать Всё могло быть иначе через торрент | qTorrent

% Раздел Тема Автор DL S | L
Наши сериалы [ 12.92 GB ] Всё могло быть иначе / Сезон: 1 / Серии: 1-16 из 16 [2019 Мело WEBRip-AVC] bober100 Скачать
1 | 0
Наши сериалы [ 9.38 GB ] Всё могло быть иначе / Сезон: 1 / Серии: 1-16 из 16 [2019 Мело SATRip] bober100 Скачать
1 | 0

28-11-2019 20:33  

Отключить всю рекламу на сайте

    Дорогой пользователь! Огромная просьба, поблагодарите релизера, оцените раздачу и оставьте свои комментарий, если Вы скачали Всё могло быть иначе через торрент бесплатно! Внесите свою лепту в развитие PiratBit!
    Комментировать посты могут только пользователи прошедшие не сложную регистрацию
    Показать сообщения:    

    Всё могло быть иначе через торрент
    Скачать бесплатно Всё могло быть иначе
    Всё могло быть иначе скачать торрент
    Всё могло быть иначе смотреть онлайн
    Cкачать фильм Всё могло быть иначе бесплатно
    Всё могло быть иначе скачать торрент в хорошем качестве
    Всё могло быть иначе смотреть онлайн бесплатно в хорошем качестве


    Вы не можете начинать темы
    Вы не можете отвечать на сообщения
    Вы не можете редактировать свои сообщения
    Вы не можете удалять свои сообщения
    Вы не можете голосовать в опросах
    Вы не можете прикреплять файлы к сообщениям
    Вы можете скачивать файлы