Ссылка на приватное зеркало нашего сайта всего за 1$. Внимание количество ограничено!!!

2 сезон

iTunes

1 сезон

1

2 сезон

2 сезон

iTunes

1 сезон

RePack

30

Новинка

ВАЖНО

ИГРА 18+

pack

RePack

MK11
pack

Забери бонус

RePack

jed

!!Акция!!

Alien_Rage

RePack

fifa19

RePack

Assassins Creed: Odyssey

RePack

NEED FOR SPEED™ PAYBACK

4 сезон

9 сезон

Бесстыжие 9 сезон

Все сериалы

все сериалы на PB.wtf

RePack

FAR CRY 5
  

Северная сторона / Northern Exposure / Сезон: 2 / Серии: 1-7 из 7 (Майкл Фреско, Ник Марк, Роб Томпсон) [1991, Драма, Комедия, BDRip 1080p] [VO] (BBC Saint-Petersburg) pb.wtf

Северная сторона через торрент pb.wtf

Размер: 31.03 GB | Добавлен: 1 год 5 мес. назад | Торрент скачан:0 раз
Скачать  

31-05-2019 17:43 Северная сторона Скачать торрент  

Северная сторона / Northern Exposur
Год выпуска: 1991
Страна: США
Жанр: Драма, комедия
Продолжительность: ~00:46:30
Перевод: Профессиональный (одноголосый) | BBC Saint-Petersburg
Субтитры: Русские, Английские
Реклама: Отсутствует
Режиссёр: Майкл Фреско, Ник Марк, Роб Томпсон…
В ролях: Роб Морроу, Корбин, Джанин Тернер, Джон Каллам, Даррен Э. Берроуз, Джон Корбетт, Синтия Гири, Элейн Майлз, Пег Филлипс, Уильям Дж. Уайт, Мултри Паттен, Джеймс Л. Данн, Тери Поло, Пол Провенза, Ричард Камминг мл., Дайан Делано, Грант Гудив, Адам Аркин
Описание: Доктор Джоэл Флэшман, выпускник университета, отличник с блестящими перспективами, откоммандирован в небольшой северный городок для прохождения практики. По приезду на место Джоэл обнаруживает, что это настоящая «дыра» на карте, не предвещающая ничего хорошего для успешной карьеры. Не теряя времени, Джоэл собирается уехать назад в Нью-Йорк, где его ждет невеста и блестящее будущее. Однако, не все так просто, по контракту, Джоэл обязан отработать здесь несколько лет.

Качество: BDRip 1080p
Контейнер: MKV
Видео: 1472x1080, 23.976 fps, MPEG-4 AVC, ~13200 kbps
Аудио Rus: AC3, 48.0 kHz, 2ch, 192 kbps | BBC Saint-Petersburg
Аудио Eng: AC3, 48.0 kHz, 2ch, 192 kbps
Формат субтитров: softsub (SRT)

Картинка от комрада REWARD
===========
Продолжение следует...

    01. Goodbye to All That
    02. The Big Kiss
    03. All Is Vanity
    04. What I Did for Love
    05. Spring Break
    06. War and Peace
    07. Slow Dance

Общее
Уникальный идентификатор : 86755870674088400094600009563517147211 (0x414492AAC56BB1598D05CEA5D7FED84B)
Полное имя : H:\Northern.Exposure.S02.1080p.BDRip.x264.Rus.Eng-ParovozN@EniaHD\Northern.Exposure.S02E03.1080p.BDRip.x264.Rus.Eng-EniaHD.mkv
Формат : Matroska
Версия формата : Version 4
Размер файла : 4,43 Гбайт
Продолжительность : 46 м. 48 с.
Общий поток : 13,6 Мбит/сек
Название фильма : Northern.Exposure.S02E03.1080p.BDRip.X264-REWARD-ParovozN@EniaHD
Дата кодирования : UTC 2019-02-21 16:18:37
Программа кодирования : mkvmerge v30.1.0 ('Forever And More') 64-bit
Библиотека кодирования : libebml v1.3.6 + libmatroska v1.4.9

Видео
Идентификатор : 1
Формат : AVC
Формат/Информация : Advanced Video Codec
Профиль формата : High@L4.1
Настройки формата : CABAC / 5 Ref Frames
Параметр CABAC формата : Да
Параметр RefFrames формата : 5 кадров
Идентификатор кодека : V_MPEG4/ISO/AVC
Продолжительность : 46 м. 48 с.
Битрейт : 13,2 Мбит/сек
Ширина : 1472 пикселя
Высота : 1080 пикселей
Соотношение сторон : 4:3
Режим частоты кадров : Постоянный
Частота кадров : 23,976 (24000/1001) кадра/сек
Цветовое пространство : YUV
Субдискретизация насыщенности : 4:2:0
Битовая глубина : 8 бит
Тип развёртки : Прогрессивная
Бит/(Пиксели*Кадры) : 0.346
Размер потока : 4,31 Гбайт (97%)
Библиотека кодирования : x264 core 155 r2901 7d0ff22
Настройки программы : cabac=1 / ref=5 / deblock=1:-3:-3 / analyse=0x3:0x113 / me=umh / subme=8 / psy=1 / psy_rd=1.10:0.00 / mixed_ref=1 / me_range=32 / chroma_me=1 / trellis=2 / 8x8dct=1 / cqm=0 / deadzone=21,11 / fast_pskip=1 / chroma_qp_offset=-2 / threads=24 / lookahead_threads=4 / sliced_threads=0 / nr=0 / decimate=1 / interlaced=0 / bluray_compat=0 / constrained_intra=0 / bframes=3 / b_pyramid=2 / b_adapt=2 / b_bias=0 / direct=3 / weightb=1 / open_gop=0 / weightp=2 / keyint=240 / keyint_min=24 / scenecut=40 / intra_refresh=0 / rc_lookahead=50 / rc=2pass / mbtree=1 / bitrate=13172 / ratetol=1.0 / qcomp=0.60 / qpmin=0 / qpmax=69 / qpstep=4 / cplxblur=20.0 / qblur=0.5 / ip_ratio=1.40 / aq=3:0.75
Default : Да
Forced : Нет

Аудио #1
Идентификатор : 2
Формат : AC-3
Формат/Информация : Audio Coding 3
Коммерческое название : Dolby Digital
Идентификатор кодека : A_AC3
Продолжительность : 46 м. 48 с.
Вид битрейта : Постоянный
Битрейт : 192 Кбит/сек
Каналы : 2 канала
Channel layout : L R
Частота : 48,0 КГц
Частота кадров : 31,250 кадров/сек (1536 SPF)
Битовая глубина : 16 бит
Метод сжатия : С потерями
Размер потока : 64,3 Мбайт (1%)
Заголовок : VO (BBC Saint-Petersburg)
Язык : Russian
ServiceKind/String : Complete Main
Default : Да
Forced : Нет

Аудио #2
Идентификатор : 3
Формат : AC-3
Формат/Информация : Audio Coding 3
Коммерческое название : Dolby Digital
Идентификатор кодека : A_AC3
Продолжительность : 46 м. 48 с.
Вид битрейта : Постоянный
Битрейт : 192 Кбит/сек
Каналы : 2 канала
Channel layout : L R
Частота : 48,0 КГц
Частота кадров : 31,250 кадров/сек (1536 SPF)
Битовая глубина : 16 бит
Метод сжатия : С потерями
Размер потока : 64,3 Мбайт (1%)
Язык : English
ServiceKind/String : Complete Main
Default : Нет
Forced : Нет

Текст #1
Идентификатор : 4
Формат : UTF-8
Идентификатор кодека : S_TEXT/UTF8
Идентификатор кодека/Информация : UTF-8 Plain Text
Продолжительность : 44 м. 57 с.
Битрейт : 153 бит/сек
ElementCount : 691
Размер потока : 50,7 Кбайт (0%)
Язык : Russian
Default : Нет
Forced : Нет

Текст #2
Идентификатор : 5
Формат : UTF-8
Идентификатор кодека : S_TEXT/UTF8
Идентификатор кодека/Информация : UTF-8 Plain Text
Продолжительность : 44 м. 58 с.
Битрейт : 93 бит/сек
ElementCount : 697
Размер потока : 30,9 Кбайт (0%)
Язык : English
Default : Нет
Forced : Нет

Меню
00:00:00.000 : en:00:00:00.000
00:02:30.233 : en:00:02:30.233
00:12:28.623 : en:00:12:28.623
00:23:09.138 : en:00:23:09.138
00:35:03.226 : en:00:35:03.226
00:46:11.394 : en:00:46:11.394

скриншот  скриншот  скриншот  
pb.wtf



Скачать Северная сторона через торрент http://funkyimg.com/i/2Sm8k.jpg Скачать фильм Северная сторона через торрент бесплантно в хорошем качестве Описание: Доктор Джоэл Флэшман, выпускник университета, отличник с блестящими перспективами, откоммандирован в небольшой северный городок ... 5 10 1
Торрент: Зарегистрирован [2019-05-31 17:43] · скачан: 0 раз
Статус: √ проверено
Размер: 31.03 GB
Как cкачать? Как скачать Северная сторона через торрент | qTorrent

28-11-2019 20:33  

Отключить всю рекламу на сайте

    Дорогой пользователь! Огромная просьба, поблагодарите релизера, оцените раздачу и оставьте свои комментарий, если Вы скачали Северная сторона через торрент бесплатно! Внесите свою лепту в развитие PiratBit!
    Комментировать посты могут только пользователи прошедшие не сложную регистрацию
    Показать сообщения:    

    Северная сторона через торрент
    Скачать бесплатно Северная сторона
    Северная сторона скачать торрент
    Северная сторона смотреть онлайн
    Cкачать фильм Северная сторона бесплатно
    Северная сторона скачать торрент в хорошем качестве
    Северная сторона смотреть онлайн бесплатно в хорошем качестве


    Вы не можете начинать темы
    Вы не можете отвечать на сообщения
    Вы не можете редактировать свои сообщения
    Вы не можете удалять свои сообщения
    Вы не можете голосовать в опросах
    Вы не можете прикреплять файлы к сообщениям
    Вы можете скачивать файлы