2 сезон

iTunes

1 сезон

1

iTunes

iTunes

iTunes

1 сезон

RePack

30

ИГРА 18+

pack

ВАЖНО

!!Акция!!

Alien_RageХит недели

RePack

MK11
pack

Забери бонус

RePack

jed

!!Акция!!

Alien_Rage

RePack

fifa19

RePack

Assassins Creed: Odyssey

RePack

NEED FOR SPEED™ PAYBACK

4 сезон

9 сезон

Бесстыжие 9 сезон

Все сериалы

все сериалы на PB.wtf

RePack

FAR CRY 5
  

Коп / Сезон: 1 / Серии: 1-8 из 8 (Радда Новикова) [2019, Детектив, мелодрама, WEB-DL 720p] pb.wtf

Коп через торрент pb.wtf

Размер: 8.9 GB | Добавлен: 1 год 5 мес. назад | Торрент скачан:33 раза
Скачать  

31-05-2019 17:45 Коп Скачать торрент  

Коп Год выпуска: 2019
Страна: Россия
Жанр: Детектив, мелодрама
Продолжительность: ~ 00:46:00
Перевод: Не требуется
Субтитры: отсутствуют

Режиссер: Радда Новикова



В ролях:

Анна Снаткина, Кирилл Зайцев (II), Иван Шмаков, Прохор Дубравин, Сергей Угрюмов, Николай Козак, Анатолий Горячев, Екатерина Маликова, Дмитрий Блохин, Виктор Цекало, Мария Баева, Дмитрий Артаев, Джунсуке Киносита, Алексей Гришин

Описание:

За основу сюжета взят обмен опытом между отделами полиции РФ и США. Лейтенанта полиции Колю отправляют в Америку, где он в одночасье становится любимцем отдела, раскрыв за короткий срок несколько очень запутанных дел. На смену ему присылают американского копа Джона. Как только он переступает границы нашей страны, его жизнь меняется навсегда…

Качество: WEB-DL 720p
Формат: MKV

Видео: 1280x720, (16:9), 25 fps, AVC MPEG-4 (x264), High@L4.1 ~ 3000 kbps , 0.130 bit/pixel
Аудио: AC3 Dolby Digital, 48.0 kHz, 2/0 (L,R) ch, 192 kbps
скриншот  скриншот  скриншот  скриншот  

Общее
Уникальный идентификатор : 211940279178572807825032153443434361725 (0x9F723687C5078D61802A899AF5D9F37D)
Полное имя : C:\01. Коп.2018. WEB-DL 720p. Files-x.mkv
Формат : Matroska
Версия формата : Version 2
Размер файла : 1,09 Гбайт
Продолжительность : 48 м. 55 с.
Общий поток : 3192 Кбит/сек
Дата кодирования : UTC 2019-05-28 11:33:16
Программа кодирования : mkvmerge v7.8.0 (''River Man'') 32bit built on Apr 3 2015 12:11:22
Библиотека кодирования : libebml v1.3.1 + libmatroska v1.4.2

Видео
Идентификатор : 1
Формат : AVC
Формат/Информация : Advanced Video Codec
Профиль формата : High@L4.1
Настройки формата : CABAC / 9 Ref Frames
Параметр CABAC формата : Да
Параметр RefFrames формата : 9 кадров
Идентификатор кодека : V_MPEG4/ISO/AVC
Продолжительность : 48 м. 55 с.
Битрейт : 3000 Кбит/сек
Ширина : 1280 пикселей
Высота : 720 пикселей
Соотношение сторон : 16:9
Режим частоты кадров : Постоянный
Частота кадров : 25,000 кадров/сек
Цветовое пространство : YUV
Субдискретизация насыщенности : 4:2:0
Битовая глубина : 8 бит
Тип развёртки : Прогрессивная
Бит/(Пиксели*Кадры) : 0.130
Размер потока : 1,00 Гбайт (92%)
Библиотека кодирования : x264 core 146 r2538 121396c
Настройки программы : cabac=1 / ref=9 / deblock=1:-2:-1 / analyse=0x3:0x133 / me=umh / subme=9 / psy=1 / psy_rd=1.00:0.15 / mixed_ref=1 / me_range=32 / chroma_me=1 / trellis=2 / 8x8dct=1 / cqm=0 / deadzone=21,11 / fast_pskip=0 / chroma_qp_offset=-3 / threads=18 / lookahead_threads=3 / sliced_threads=0 / nr=0 / decimate=1 / interlaced=0 / bluray_compat=0 / constrained_intra=0 / bframes=9 / b_pyramid=2 / b_adapt=2 / b_bias=0 / direct=1 / weightb=1 / open_gop=0 / weightp=2 / keyint=250 / keyint_min=25 / scenecut=40 / intra_refresh=0 / rc=2pass / mbtree=0 / bitrate=3000 / ratetol=1.0 / qcomp=0.60 / qpmin=0 / qpmax=69 / qpstep=4 / cplxblur=20.0 / qblur=0.5 / ip_ratio=1.40 / pb_ratio=1.30 / aq=2:1.00
Default : Да
Forced : Нет
Цветовой диапазон : Limited
Основные цвета : BT.709
Характеристики трансфера : BT.709
Коэффициенты матрицы : BT.709

Аудио
Идентификатор : 2
Формат : AC-3
Формат/Информация : Audio Coding 3
Коммерческое название : Dolby Digital
Идентификатор кодека : A_AC3
Продолжительность : 48 м. 55 с.
Вид битрейта : Постоянный
Битрейт : 192 Кбит/сек
Каналы : 2 канала
ChannelLayout : L R
Частота : 48,0 КГц
Частота кадров : 31,250 кадров/сек (1536 SPF)
Битовая глубина : 16 бит
Метод сжатия : С потерями
Размер потока : 67,2 Мбайт (6%)
ServiceKind/String : Complete Main
Default : Да
Forced : Нет
Показать скриншоты

pb.wtf



Скачать Коп через торрент https://i110.fastpic.ru/big/2019/0527/7f/88ff3214bffec530dbf7a416f4f9527f.jpg Скачать фильм Коп через торрент бесплантно в хорошем качестве Описание: За основу сюжета взят обмен опытом между отделами полиции РФ и США. Лейтенанта полиции Колю отправляют в Америку, где он в ... 10 10 3
Торрент: Зарегистрирован [2019-05-31 17:45] · скачан: 33 раз
Статус: √ проверено
Размер: 8.9 GB
Как cкачать? Как скачать Коп через торрент | qTorrent

% Раздел Тема Автор DL S | L
Зарубежные сериалы [ 1.83 GB ] Парни что надо / The Right Stuff / Сезон: 1 / Серии: 1-4 из 8 [2020 история WEBRip] [MVO] killermax2013 Скачать
2 | 0
Наши сериалы [ 11.61 GB ] Учителя / Сезон: 1 / Серии: 1-8 из 8 [2014 Мело WEB-DL 1080p] bober100 Скачать
1 | 0
Наши сериалы [ 5.02 GB ] Коп / Сезон: 1 / Серии: 1-8 из 8 [2019 WEB-DLRip] bober100 Скачать
1 | 0
Наши сериалы [ 14.8 GB ] Коп / Сезон: 1 / Серии: 1-8 из 8 [2019 WEB-DL 1080p] bober100 Скачать
1 | 0
Наши сериалы [ 6.04 GB ] Коп / Сезон: 1 / Серии: 1-8 из 8 [2019 HDTVRip-AVC] bober100 Скачать
1 | 0
Наши сериалы [ 5.05 GB ] Коп / Сезон: 1 / Серии: 1-8 из 8 [2019 SATRip] bober100 Скачать
2 | 0
Наши сериалы [ 10.17 GB ] Коп / Сезон: 1 / Серии: 1-8 из 8 [2019 HDTVRip 720p] bober100 Скачать
1 | 0

28-11-2019 20:33  

Отключить всю рекламу на сайте

    Дорогой пользователь! Огромная просьба, поблагодарите релизера, оцените раздачу и оставьте свои комментарий, если Вы скачали Коп через торрент бесплатно! Внесите свою лепту в развитие PiratBit!
    Комментировать посты могут только пользователи прошедшие не сложную регистрацию
    Показать сообщения:    

    Коп через торрент
    Скачать бесплатно Коп
    Коп скачать торрент
    Коп смотреть онлайн
    Cкачать фильм Коп бесплатно
    Коп скачать торрент в хорошем качестве
    Коп смотреть онлайн бесплатно в хорошем качестве


    Вы не можете начинать темы
    Вы не можете отвечать на сообщения
    Вы не можете редактировать свои сообщения
    Вы не можете удалять свои сообщения
    Вы не можете голосовать в опросах
    Вы не можете прикреплять файлы к сообщениям
    Вы можете скачивать файлы