2 сезон

iTunes

1 сезон

1

iTunes

iTunes

iTunes

1 сезон

RePack

30

ИГРА 18+

pack

ВАЖНО

!!Акция!!

Alien_RageХит недели

RePack

MK11
pack

Забери бонус

RePack

jed

!!Акция!!

Alien_Rage

RePack

fifa19

RePack

Assassins Creed: Odyssey

RePack

NEED FOR SPEED™ PAYBACK

4 сезон

9 сезон

Бесстыжие 9 сезон

Все сериалы

все сериалы на PB.wtf

RePack

FAR CRY 5
  

Коп / Сезон: 1 / Серии: 1-8 из 8 (Радда Новикова) [2019, Детектив, мелодрама, WEB-DLRip] pb.wtf

Коп через торрент pb.wtf

Размер: 5.02 GB | Добавлен: 1 год 5 мес. назад | Торрент скачан:130 раз
Скачать  

31-05-2019 17:55 Коп Скачать торрент  

Коп Год выпуска: 2019
Страна: Россия
Жанр: Детектив, мелодрама
Продолжительность: ~ 00:46:00
Перевод: Не требуется
Субтитры: отсутствуют

Режиссер: Радда Новикова



В ролях:

Анна Снаткина, Кирилл Зайцев (II), Иван Шмаков, Прохор Дубравин, Сергей Угрюмов, Николай Козак, Анатолий Горячев, Екатерина Маликова, Дмитрий Блохин, Виктор Цекало, Мария Баева, Дмитрий Артаев, Джунсуке Киносита, Алексей Гришин

Описание:

За основу сюжета взят обмен опытом между отделами полиции РФ и США. Лейтенанта полиции Колю отправляют в Америку, где он в одночасье становится любимцем отдела, раскрыв за короткий срок несколько очень запутанных дел. На смену ему присылают американского копа Джона. Как только он переступает границы нашей страны, его жизнь меняется навсегда…

Качество: WEB-DLRip
Формат: AVI

Видео: XviD, ~ 1600 Кбит/с, 720х400
Аудио: AC3 Dolby Digital, 48.0 kHz, 2/0 (L,R) ch, 192 kbps
скриншот  скриншот  скриншот  скриншот  

Общее
Полное имя : D:\Коп .2019. WEB-DLRip. Files-x\01. Коп.2018.WEB-DLRip. Files-x.avi
Формат : AVI
Формат/Информация : Audio Video Interleave
Размер файла : 630 Мбайт
Продолжительность : 48 м. 55 с.
Общий поток : 1802 Кбит/сек
Программа кодирования : VirtualDubMod 1.5.10.3 | www.virtualdub-fr.org || (build 2550/release)
Библиотека кодирования : VirtualDubMod build 2550/release

Видео
Идентификатор : 0
Формат : MPEG-4 Visual
Профиль формата : Advanced Simple@L5
Параметр BVOP формата : 1
Параметр QPel формата : Нет
Параметр GMC формата : Без точки перехода
Параметр матрицы формата : Выборочная
Идентификатор кодека : XVID
Идентификатор кодека/Подсказка : XviD
Продолжительность : 48 м. 55 с.
Битрейт : 1600 Кбит/сек
Ширина : 720 пикселей
Высота : 400 пикселей
Соотношение сторон : 16:9
Частота кадров : 25,000 кадров/сек
Цветовое пространство : YUV
Субдискретизация насыщенности : 4:2:0
Битовая глубина : 8 бит
Тип развёртки : Прогрессивная
Метод сжатия : С потерями
Бит/(Пиксели*Кадры) : 0.222
Размер потока : 560 Мбайт (89%)
Библиотека кодирования : XviD 73

Аудио
Идентификатор : 1
Формат : AC-3
Формат/Информация : Audio Coding 3
Расширение режима : CM (complete main)
Параметр Endianness формата : Big
Идентификатор кодека : 2000
Продолжительность : 48 м. 55 с.
Вид битрейта : Постоянный
Битрейт : 192 Кбит/сек
Каналы : 2 канала
Расположение каналов : Front: L R
Частота : 48,0 КГц
Частота кадров : 31,250 кадров/сек (1536 spf)
Метод сжатия : С потерями
Размер потока : 67,2 Мбайт (11%)
Выравнивание : Разделение по промежуткам
Продолжительность промежутка : 40 мс. (1,00 видеокадр)
Время предзагрузки промежутка : 500 мс.

pb.wtf



Скачать Коп через торрент https://i110.fastpic.ru/big/2019/0527/7f/88ff3214bffec530dbf7a416f4f9527f.jpg Скачать фильм Коп через торрент бесплантно в хорошем качестве Описание: За основу сюжета взят обмен опытом между отделами полиции РФ и США. Лейтенанта полиции Колю отправляют в Америку, где он в ... 10 10 4
Торрент: Зарегистрирован [2019-05-31 17:55] · скачан: 130 раз
Статус: √ проверено
Размер: 5.02 GB
Как cкачать? Как скачать Коп через торрент | qTorrent

% Раздел Тема Автор DL S | L
Зарубежные сериалы [ 1.83 GB ] Парни что надо / The Right Stuff / Сезон: 1 / Серии: 1-4 из 8 [2020 история WEBRip] [MVO] killermax2013 Скачать
2 | 0
Наши сериалы [ 11.61 GB ] Учителя / Сезон: 1 / Серии: 1-8 из 8 [2014 Мело WEB-DL 1080p] bober100 Скачать
1 | 0
Наши сериалы [ 14.8 GB ] Коп / Сезон: 1 / Серии: 1-8 из 8 [2019 WEB-DL 1080p] bober100 Скачать
1 | 0
Наши сериалы [ 8.9 GB ] Коп / Сезон: 1 / Серии: 1-8 из 8 [2019 WEB-DL 720p] bober100 Скачать
1 | 0
Наши сериалы [ 6.04 GB ] Коп / Сезон: 1 / Серии: 1-8 из 8 [2019 HDTVRip-AVC] bober100 Скачать
1 | 0
Наши сериалы [ 5.05 GB ] Коп / Сезон: 1 / Серии: 1-8 из 8 [2019 SATRip] bober100 Скачать
1 | 0
Наши сериалы [ 10.17 GB ] Коп / Сезон: 1 / Серии: 1-8 из 8 [2019 HDTVRip 720p] bober100 Скачать
1 | 0

28-11-2019 20:33  

Отключить всю рекламу на сайте

    Дорогой пользователь! Огромная просьба, поблагодарите релизера, оцените раздачу и оставьте свои комментарий, если Вы скачали Коп через торрент бесплатно! Внесите свою лепту в развитие PiratBit!
    Комментировать посты могут только пользователи прошедшие не сложную регистрацию
    Показать сообщения:    

    Коп через торрент
    Скачать бесплатно Коп
    Коп скачать торрент
    Коп смотреть онлайн
    Cкачать фильм Коп бесплатно
    Коп скачать торрент в хорошем качестве
    Коп смотреть онлайн бесплатно в хорошем качестве


    Вы не можете начинать темы
    Вы не можете отвечать на сообщения
    Вы не можете редактировать свои сообщения
    Вы не можете удалять свои сообщения
    Вы не можете голосовать в опросах
    Вы не можете прикреплять файлы к сообщениям
    Вы можете скачивать файлы