Ссылка на приватное зеркало всего за 1$. Внимание количество ограничено!!!

OK

1+1

iTunes

мы

OK

1

WEB-DLRip

Джокер

Пифагор

Ведьмак / The Witcher сериал

iTunes

ПШазам

ОК

Оно 2

iTunes

30
pack

Вам бонус

ВАЖНО

!!Акция!!

Alien_RageХит недели

RePack

Resident Evil 21

ИГРА 18+

pack

RePack

jed

RePack

fifa19

RePack

Assassins Creed: Odyssey

RePack

NEED FOR SPEED™ PAYBACK

4 сезон

9 сезон

Бесстыжие 9 сезон

Все сериалы

все сериалы на PB.wtf

RePack

FAR CRY 5
  

Незаконное правосудие / Unlawful Justice (Крис Бакстер) [2019, драма, криминал, WEB-DL 720p] MVO [AlphaProject] pb.wtf

Незаконное правосудие через торрент pb.wtf

Размер: 3.24 GB | Добавлен: 7 мес. назад | Торрент скачан:37 раз
Скачать  

31-05-2019 18:07 Незаконное правосудие Скачать торрент  

Незаконное правосудие / Unlawful JusticeГод выпуска: 2019
Страна: США
Жанр: драма, криминал
Продолжительность: 01:22:24
Перевод: Любительский (многоголосый) | AlphaProject
Субтитры: отсутствуют

Режиссер: Крис Бакстер

rating

В ролях: Эммануэль Вега, Жезабель Монтеро, Марлон Фишер, Лелия Симингтон, Чэнс Харлем мл., Клифф Йейтс, Филадельфия Спрингфилд, Эд Реджин, Терранс Кит Ричардсон, Джеймс Сватко

Описание: Офицер полиции испытывает большие финансовые проблемы из-за болезни дочери, и для повышения ему необходимо выполнить негласную квоту. Он искренне хочет искоренить преступность в городе и поступать по чести, но порой служебное положение вынуждает его выходить за эти рамки.

Качество: WEB-DL 720p
Формат: MKV
Видео: h.264, 5 240 Кбит/с, 1280x582
Аудио#1: Русский, (AC3, 2 ch, 384 Кбит/с)
скриншот  скриншот  скриншот  

Общее
Уникальный идентификатор : 231163681806053330386324164908232415284 (0xADE881748A385F628CF7B61E9FDF1834)
Полное имя : D:\UnlawfulJustice.2O19.Pa.WEB-DL.72Op.mkv
Формат : Matroska
Версия формата : Version 2
Размер файла : 3,24 Гбайт
Продолжительность : 1 ч. 22 м.
Режим общего битрейта : Переменный
Общий поток : 5625 Кбит/сек
Дата кодирования : UTC 2019-05-31 03:23:02
Программа кодирования : mkvmerge v8.3.0 ('Over the Horizon') 64bit
Библиотека кодирования : libebml v1.3.1 + libmatroska v1.4.2

Видео
Идентификатор : 1
Формат : AVC
Формат/Информация : Advanced Video Codec
Профиль формата : High@L4.1
Параметр CABAC формата : Да
Параметр RefFrames формата : 4 кадра
Идентификатор кодека : V_MPEG4/ISO/AVC
Продолжительность : 1 ч. 22 м.
Вид битрейта : Переменный
Битрейт : 5240 Кбит/сек
Максимальный битрейт : 6000 Кбит/сек
Ширина : 1280 пикселей
Высота : 582 пикселя
Соотношение сторон : 2,2:1
Режим частоты кадров : Постоянный
Частота кадров : 23,976 (24000/1001) кадра/сек
Стандарт вещания : Component
Цветовое пространство : YUV
Субдискретизация насыщенности : 4:2:0
Битовая глубина : 8 бит
Тип развёртки : Прогрессивная
Бит/(Пиксели*Кадры) : 0.287
Размер потока : 2,95 Гбайт (91%)
Default : Да
Forced : Нет
Цветовой диапазон : Limited
Основные цвета : BT.709
Характеристики трансфера : BT.709
Коэффициенты матрицы : BT.709

Аудио
Идентификатор : 2
Формат : AC-3
Формат/Информация : Audio Coding 3
Расширение режима : CM (complete main)
Параметр Endianness формата : Big
Идентификатор кодека : A_AC3
Продолжительность : 1 ч. 22 м.
Вид битрейта : Постоянный
Битрейт : 384 Кбит/сек
Каналы : 2 канала
Расположение каналов : Front: L R
Частота : 48,0 КГц
Частота кадров : 31,250 кадров/сек (1536 spf)
Метод сжатия : С потерями
Размер потока : 226 Мбайт (7%)
Default : Да
Forced : Нет

pb.wtf



Скачать Незаконное правосудие через торрент https://b.radikal.ru/b23/1905/cf/be80f9ea530f.jpg Скачать фильм Незаконное правосудие через торрент бесплантно в хорошем качестве Описание: Офицер полиции испытывает большие финансовые проблемы из-за болезни дочери, и для повышения ему необходимо выполнить негласную ... 10 10 2
Торрент: Зарегистрирован [2019-05-31 18:07] · скачан: 37 раз
Статус: T временная
Размер: 3.24 GB
Как cкачать? Как скачать Незаконное правосудие через торрент | qTorrent

% Раздел Тема Автор DL S | L
T Фильмы (мультфильмы) cо спонсором показа (Новинки AVI/MKV) [ 1.37 GB ] Незаконное правосудие / Unlawful Justice [2019 WEB-DLRip] MVO [AlphaProject] bober100 Скачать
1 | 0

28-11-2019 20:33  

Отключить всю рекламу на сайте

    Дорогой пользователь! Огромная просьба, поблагодарите релизера, оцените раздачу и оставьте свои комментарий, если Вы скачали Незаконное правосудие через торрент бесплатно! Внесите свою лепту в развитие PiratBit!
    Комментировать посты могут только пользователи прошедшие не сложную регистрацию
    Показать сообщения:    

    Незаконное правосудие через торрент
    Скачать бесплатно Незаконное правосудие
    Незаконное правосудие скачать торрент
    Незаконное правосудие смотреть онлайн
    Cкачать фильм Незаконное правосудие бесплатно
    Незаконное правосудие скачать торрент в хорошем качестве
    Незаконное правосудие смотреть онлайн бесплатно в хорошем качестве


    Вы не можете начинать темы
    Вы не можете отвечать на сообщения
    Вы не можете редактировать свои сообщения
    Вы не можете удалять свои сообщения
    Вы не можете голосовать в опросах
    Вы не можете прикреплять файлы к сообщениям
    Вы можете скачивать файлы