Ссылка на приватное зеркало всего за 1$. Внимание количество ограничено!!!

OK

1+1

iTunes

мы

OK

1

WEB-DLRip

Джокер

Пифагор

Ведьмак / The Witcher сериал

Лицензия

ПШазам

ОК

Оно 2

iTunes

30
pack

Вам бонус

ВАЖНО

!!Акция!!

Alien_RageХит недели

RePack

Resident Evil 21

ИГРА 18+

pack

RePack

jed

!!Акция!!

Alien_Rage

RePack

fifa19

RePack

Assassins Creed: Odyssey

RePack

NEED FOR SPEED™ PAYBACK

4 сезон

9 сезон

Бесстыжие 9 сезон

Все сериалы

все сериалы на PB.wtf

RePack

FAR CRY 5
  

Полярный / Polar (Йонас Окерлунд) [2019, боевик, криминал, WEB-DL 720p] DUB [Line] pb.wtf

Полярный через торрент pb.wtf

Раздают: 23 [ 0 KB/s ] Качают: 2 [ 0 KB/s ]
Размер: 4.78 GB | Добавлен: 7 мес. назад | Торрент скачан:291 раз
Скачать  

31-05-2019 18:20 Полярный Скачать торрент  

Полярный / Polar
Год выпуска: 2019
Страна: США, Германия
Жанр: боевик, криминал
Продолжительность: 01:59:40
Перевод: Дублированный | Line
Субтитры: отсутствуют

Режиссер: Йонас Окерлунд

rating

В ролях:

Мадс Миккельсен, Ванесса Энн Хадженс, Кэтрин Уинник, Руби О. Фи, Джонни Ноксвил, Мэтт Лукас, Сима Фишер, Роберт Мэйллет, Фэй Рен, Инга Кадранел

Описание:

Дункан Визла - один из самых опасных киллеров в мире, известный под прозвищем Черный Кайзер. Когда-то он убивал людей по всему свету, но теперь наслаждается мирным существованием и давно уже не брал в руки оружие.

Только вот бывший клиент, с которым у Дункана произошел небольшой конфликт, не собирается забывать старые обиды. В скором времени мирной жизни бывшего киллера придет конец, когда за Дунканом начнет охоту армия из молодых и беспощадных убийц. Для спасения жизни ему предстоит использовать все полученные за долгие годы заказных убийств навыки и знания.

Качество: WEB-DL 720p
Формат: MKV

Видео: h.264,5 328 Кбит/с, 1280x640
Аудио: Русский, (AC3, 2 ch, 384 Кбит/с)
скриншот  скриншот  скриншот  

Общее
Уникальный идентификатор : 207987338077128653232379884461352114400 (0x9C78E77CA3F8EFC2977A3958FF5558E0)
Полное имя : D:\Polar.2O19.D.WEB-DL.72Op.mkv
Формат : Matroska
Версия формата : Version 2
Размер файла : 4,78 Гбайт
Продолжительность : 1 ч. 59 м.
Режим общего битрейта : Переменный
Общий поток : 5713 Кбит/сек
Дата кодирования : UTC 2019-05-31 02:20:23
Программа кодирования : mkvmerge v8.3.0 ('Over the Horizon') 64bit
Библиотека кодирования : libebml v1.3.1 + libmatroska v1.4.2

Видео
Идентификатор : 1
Формат : AVC
Формат/Информация : Advanced Video Codec
Профиль формата : High@L4.1
Параметр CABAC формата : Да
Параметр RefFrames формата : 4 кадра
Идентификатор кодека : V_MPEG4/ISO/AVC
Продолжительность : 1 ч. 59 м.
Вид битрейта : Переменный
Битрейт : 5328 Кбит/сек
Максимальный битрейт : 6000 Кбит/сек
Ширина : 1280 пикселей
Высота : 640 пикселей
Соотношение сторон : 2,000
Режим частоты кадров : Постоянный
Частота кадров : 23,976 (24000/1001) кадра/сек
Стандарт вещания : Component
Цветовое пространство : YUV
Субдискретизация насыщенности : 4:2:0
Битовая глубина : 8 бит
Тип развёртки : Прогрессивная
Бит/(Пиксели*Кадры) : 0.266
Размер потока : 4,36 Гбайт (91%)
Default : Да
Forced : Нет
Цветовой диапазон : Limited
Основные цвета : BT.709
Характеристики трансфера : BT.709
Коэффициенты матрицы : BT.709

Аудио
Идентификатор : 2
Формат : AC-3
Формат/Информация : Audio Coding 3
Расширение режима : CM (complete main)
Параметр Endianness формата : Big
Идентификатор кодека : A_AC3
Продолжительность : 1 ч. 59 м.
Вид битрейта : Постоянный
Битрейт : 384 Кбит/сек
Каналы : 2 канала
Расположение каналов : Front: L R
Частота : 48,0 КГц
Частота кадров : 31,250 кадров/сек (1536 spf)
Метод сжатия : С потерями
Размер потока : 329 Мбайт (7%)
Default : Да
Forced : Нет

pb.wtf



Скачать Полярный через торрент https://a.radikal.ru/a28/1901/ee/a9a79d38d19d.jpg Скачать фильм Полярный через торрент бесплантно в хорошем качестве Описание: Дункан Визла - один из самых опасных киллеров в мире, известный под прозвищем Черный Кайзер. Когда-то он убивал людей по всему ... 8.5 10 10
Торрент: Зарегистрирован [2019-05-31 18:20] · скачан: 291 раз
Статус: T временная
Размер: 4.78 GB
Как cкачать? Как скачать Полярный через торрент | qTorrent

% Раздел Тема Автор DL S | L
T Фильмы 2019-2020 [DVDrip, WEB-DLRip, HDrip] (DUB, MVO) [ 1.47 GB ] Полярный / Polar [2019 WEB-DLRip] MVO [IdeaFilm] bober100 Скачать
4 | 0
T Фильмы (мультфильмы) cо спонсором показа (Новинки AVI/MKV) [ 1.37 GB ] Полярный / Polar [2019 WEB-DLRip] DUB [Line] bober100 Скачать
2 | 0
T Фильмы (мультфильмы) cо спонсором показа (Новинки AVI/MKV) [ 2.05 GB ] Полярный / Polar [2019 WEB-DLRip] DUB [Line] bober100 Скачать
1 | 0
Фильмы (WEB-DL 720p, 1080p) [ 13.64 GB ] Полярный / Polar [2019 WEBRip 1080p] MVO [HDrezka] bober100 Скачать
3 | 0
Ultra HD (UHD: 2K, 4K, 8K) — видео сверхвысокой чёткости [ 16.72 GB ] Полярный / Polar [2019 UHD WEBRip 2160p] MVO [HDrezka studio] + MVO [IdeaFilm] + VO sheker187 Скачать
2 | 0
Фильмы без перевода [ 5.89 GB ] Полярный / Polar [2019 WEBRip 1080p] [Sub Rus] killermax2013 Скачать
2 | 0
Зарубежные Мультфильмы (BDRip 1080p, 720p, Blu-ray, BD-Remux) [ 5.76 GB ] Полярный экспресс / The Polar Express [2004 мультфильм BDRip 720p] DUB MVO AVO potroks Скачать
1 | 0

28-11-2019 20:33  

Отключить всю рекламу на сайте

    Дорогой пользователь! Огромная просьба, поблагодарите релизера, оцените раздачу и оставьте свои комментарий, если Вы скачали Полярный через торрент бесплатно! Внесите свою лепту в развитие PiratBit!
    Комментировать посты могут только пользователи прошедшие не сложную регистрацию
    Показать сообщения:    

    Полярный через торрент
    Скачать бесплатно Полярный
    Полярный скачать торрент
    Полярный смотреть онлайн
    Cкачать фильм Полярный бесплатно
    Полярный скачать торрент в хорошем качестве
    Полярный смотреть онлайн бесплатно в хорошем качестве


    Вы не можете начинать темы
    Вы не можете отвечать на сообщения
    Вы не можете редактировать свои сообщения
    Вы не можете удалять свои сообщения
    Вы не можете голосовать в опросах
    Вы не можете прикреплять файлы к сообщениям
    Вы можете скачивать файлы