MEGA NEWS Получи личный уникальный адрес сайта и защити себя от блокировок. Внимание количество ограничено!!!

iTunes

1+1

iTunes

мы

iTunes

1

iTunes

Чернобыль

iTunes

Ральф против интернета

Лицензия

ПШазам

Лицензия

Игра престолов

Лицензия

30
pack

ВАЖНО

!!Акция!!

Alien_RageХит недели

RePack

Resident Evil 21

ИГРА 18+

pack

RePack

Metro:Exodus

!!Акция!!

Alien_Rage

RePack

fifa19

RePack

Assassins Creed: Odyssey

RePack

NEED FOR SPEED™ PAYBACK

3 сезон

9 сезон

Бесстыжие 9 сезон

Все сериалы

все сериалы на PB.wtf

RePack

FAR CRY 5
Ребята, катастрофически не хватает 1900р. для оплаты серверов за АВГУСТ (всвязи с блокировками трафик упал в 3 раза), 1-2р., выручайте.
  

Открытое море / Alta Mar / High Seas / Сезон: 1 / Серии: 1-8 из 8 (Лино Эскалера, Карлос Седес) [2019, драма, криминал, детектив, WEB-DL 1080p] [MVO] (AMS) pb.wtf

Открытое море через торрент pb.wtf

Размер: 10.09 GB | Добавлен: 4 мес. 18 д. назад | Торрент скачан:68 раз
Скачать  

31-05-2019 18:21 Открытое море Скачать торрент  

Открытое море / Alta Mar / High Seas

Год выпуска: 2019
Страна: Испания
Жанр: Драма, криминал, детектив
Продолжительность: ~ 00:45:00

Перевод: Профессиональный (многоголосый закадровый) (AMS)

Режиссёр: Лино Эскалера, Карлос Седес

В ролях: Ивана Бакеро, Алехандра Ониэва, Элой Асорин, Чики Фернандес, Тамар Новас, Даниэль Лунд, Наталия Родригес, Лаура Пратс, Игнасио Монтес и другие

Описание:
В 1940 году из Европы в Южную Америку отправляется трансатлантический лайнер, который везет счастливых людей, бегущих от войны в новый дивный мир. Среди пассажиров две сестры Каролина и Ева, а также офицер Николас Сала, оказавшийся не в том месте и не в то время.

Через какое-то время на борту появляется труп неизвестного пассажира, которого не было в списке, более того его никто не может вспомнить. Начинается расследование, в ходе которого обнаруживаются «скелеты» как в каждой каюте, так и самого судна.

rating
Сэмпл

Качество: WEB-DL 1080p
Контейнер: MKV
Видео: AVC, 1920x1080 (16:9), 25 fps, ~ 3320-4980 кбит/с (переменный), 0.064-0.080 bit/pixel
Аудио 1: Русский, AC3, 48 KHz, 6 channels, 640 kbps
Аудио 2: Английский, AC3, 48 KHz, 6 channels, 640 kbps
Субтитры: Русские, английские, испаанские (Softsub SRT)
General
Unique ID : 193901949111470644097719009102710472267 (0x91E028319A6449A5108AF01E12B87E4B)
Complete name : /Alta.mar.[High.Seas].S01.1080p.WEB-DL.AMS/Alta.mar.[High.Seas].S01E01.1080p.WEB-DL.AMS.mkv
Format : Matroska
Format version : Version 4 / Version 2
File size : 1.56 GiB
Duration : 49mn 22s
Overall bit rate mode : Variable
Overall bit rate : 4 534 Kbps
Movie name : Alta Mar 1x01 - MVO AMS
Encoded date : UTC 2019-05-31 12:06:04
Writing application : mkvmerge v8.2.0 ('World of Adventure') 64bit
Writing library : libebml v1.3.1 + libmatroska v1.4.2

Video
ID : 1
Format : AVC
Format/Info : Advanced Video Codec
Format profile : Main@L4
Format settings, CABAC : Yes
Format settings, ReFrames : 3 frames
Codec ID : V_MPEG4/ISO/AVC
Duration : 49mn 22s
Bit rate mode : Variable
Bit rate : 3 320 Kbps
Maximum bit rate : 4 980 Kbps
Width : 1 920 pixels
Height : 1 080 pixels
Display aspect ratio : 16:9
Frame rate mode : Constant
Frame rate : 25.000 fps
Color space : YUV
Chroma subsampling : 4:2:0
Bit depth : 8 bits
Scan type : Progressive
Bits/(Pixel*Frame) : 0.064
Stream size : 1.12 GiB (72%)
Title : Alta Mar 1x01 - MVO AMS
Writing library : x264 core 148 r2715 7e75228
Encoding settings : cabac=1 / ref=3 / deblock=1:0:0 / analyse=0x1:0x111 / me=umh / subme=10 / psy=1 / psy_rd=1.00:0.00 / mixed_ref=1 / me_range=24 / chroma_me=1 / trellis=2 / 8x8dct=0 / cqm=0 / deadzone=21,11 / fast_pskip=1 / chroma_qp_offset=-2 / threads=6 / lookahead_threads=1 / sliced_threads=0 / nr=0 / decimate=1 / interlaced=0 / bluray_compat=0 / stitchable=1 / constrained_intra=0 / bframes=2 / b_pyramid=0 / b_adapt=2 / b_bias=0 / direct=3 / weightb=1 / open_gop=0 / weightp=2 / keyint=250 / keyint_min=25 / scenecut=0 / intra_refresh=0 / rc_lookahead=50 / rc=2pass / mbtree=1 / bitrate=3320 / ratetol=1.0 / qcomp=0.50 / qpmin=6 / qpmax=51 / qpstep=4 / cplxblur=20.0 / qblur=0.5 / vbv_maxrate=4980 / vbv_bufsize=6640 / nal_hrd=vbr / filler=0 / ip_ratio=1.40 / aq=1:1.00
Default : Yes
Forced : No

Audio #1
ID : 2
Format : AC-3
Format/Info : Audio Coding 3
Mode extension : CM (complete main)
Format settings, Endianness : Big
Codec ID : A_AC3
Duration : 49mn 22s
Bit rate mode : Constant
Bit rate : 640 Kbps
Channel(s) : 6 channels
Channel positions : Front: L C R, Side: L R, LFE
Sampling rate : 48.0 KHz
Frame rate : 31.250 fps (1536 spf)
Compression mode : Lossy
Stream size : 226 MiB (14%)
Title : MVO AMS
Language : Russian
Default : Yes
Forced : No

Audio #2
ID : 3
Format : E-AC-3
Format/Info : Audio Coding 3
Format settings, Endianness : Big
Codec ID : A_EAC3
Duration : 49mn 22s
Bit rate mode : Constant
Bit rate : 640 Kbps
Channel(s) : 6 channels
Channel positions : Front: L C R, Side: L R, LFE
Sampling rate : 48.0 KHz
Frame rate : 187.500 fps (256 spf)
Compression mode : Lossy
Stream size : 226 MiB (14%)
Title : Original
Language : Spanish
Default : No
Forced : No

Text #1
ID : 4
Format : UTF-8
Codec ID : S_TEXT/UTF8
Codec ID/Info : UTF-8 Plain Text
Duration : 48mn 50s
Bit rate : 100 bps
Count of elements : 670
Stream size : 35.9 KiB (0%)
Title : Russian
Language : Russian
Default : No
Forced : No

Text #2
ID : 5
Format : UTF-8
Codec ID : S_TEXT/UTF8
Codec ID/Info : UTF-8 Plain Text
Duration : 48mn 50s
Bit rate : 65 bps
Count of elements : 667
Stream size : 23.5 KiB (0%)
Title : English
Language : English
Default : No
Forced : No

Text #3
ID : 6
Format : UTF-8
Codec ID : S_TEXT/UTF8
Codec ID/Info : UTF-8 Plain Text
Duration : 48mn 50s
Bit rate : 72 bps
Count of elements : 711
Stream size : 25.8 KiB (0%)
Title : English [SDH]
Language : English
Default : No
Forced : No

Text #4
ID : 7
Format : UTF-8
Codec ID : S_TEXT/UTF8
Codec ID/Info : UTF-8 Plain Text
Duration : 47mn 14s
Bit rate : 72 bps
Count of elements : 665
Stream size : 25.1 KiB (0%)
Title : Castilian
Language : Spanish
Default : No
Forced : No

Text #5
ID : 8
Format : UTF-8
Codec ID : S_TEXT/UTF8
Codec ID/Info : UTF-8 Plain Text
Duration : 46mn 50s
Bit rate : 76 bps
Count of elements : 715
Stream size : 26.4 KiB (0%)
Title : Castilian [SDH]
Language : Spanish
Default : No
Forced : No
скриншот  скриншот  скриншот  
pb.wtf



Скачать Открытое море через торрент https://a.radikal.ru/a22/1905/a0/87798ae895f6.jpg Скачать фильм Открытое море через торрент бесплантно в хорошем качестве Описание:В 1940 году из Европы в Южную Америку отправляется трансатлантический лайнер, который везет счастливых людей, бегущих от войны в ... 9.2 10 5
Торрент: Зарегистрирован [2019-05-31 18:21] · скачан: 68 раз
Статус: √ проверено
Размер: 10.09 GB
Как cкачать? Как скачать Открытое море через торрент | qTorrent

% Раздел Тема Автор DL S | L
Зарубежные сериалы [ 6.77 GB ] Открытое море / Alta Mar / High Seas / Сезон: 1 / Серии: 1-8 из 8 [2019 WEB-DLRip] [MVO] killermax2013 Скачать
2 | 0


Последний раз редактировалось: killermax2013 (2019-06-19 22:57), всего редактировалось 1 раз


>> Регистрируемся здесь <<






Отзывы и комментарии о схеме читаем и пишем здесь: ---> Отзывы и комментарии о схеме

Новые благодарочки в телеграм довольных пользователей:
скриншот   скриншот   скриншот   скриншот   скриншот

19-06-2019 22:55 Открытое море Скачать торрент  

неплохой детектив, глянул за 2 дня pb.wtf



    Дорогой пользователь! Огромная просьба, поблагодарите релизера, оцените раздачу и оставьте свои комментарий, если Вы скачали Открытое море через торрент бесплатно! Внесите свою лепту в развитие PiratBit!
    Комментировать посты могут только пользователи прошедшие не сложную регистрацию
    Показать сообщения:    

    Открытое море через торрент
    Скачать бесплатно Открытое море
    Открытое море скачать торрент
    Открытое море смотреть онлайн
    Cкачать фильм Открытое море бесплатно
    Открытое море скачать торрент в хорошем качестве
    Открытое море смотреть онлайн бесплатно в хорошем качестве


    Вы не можете начинать темы
    Вы не можете отвечать на сообщения
    Вы не можете редактировать свои сообщения
    Вы не можете удалять свои сообщения
    Вы не можете голосовать в опросах
    Вы не можете прикреплять файлы к сообщениям
    Вы можете скачивать файлы