Ссылка на приватное зеркало нашего сайта всего за 1$. Внимание количество ограничено!!!

2 сезон

iTunes

1 сезон

1

2 сезон

2 сезон

iTunes

1 сезон

RePack

30

Ultimate

ВАЖНО

ИГРА 18+

pack

RePack

MK11
pack

Забери бонус

RePack

jed

!!Акция!!

Alien_Rage

RePack

fifa19

RePack

Assassins Creed: Odyssey

RePack

NEED FOR SPEED™ PAYBACK

4 сезон

9 сезон

Бесстыжие 9 сезон

Все сериалы

все сериалы на PB.wtf

RePack

FAR CRY 5
  

Открытое море / Alta Mar / High Seas / Сезон: 1 / Серии: 1-8 из 8 (Лино Эскалера, Карлос Седес) [2019, драма, криминал, детектив, WEB-DLRip] [MVO] (AMS) pb.wtf

Открытое море через торрент pb.wtf

Размер: 6.77 GB | Добавлен: 1 год 6 мес. назад | Торрент скачан:86 раз
Скачать  

01-06-2019 06:49 Открытое море Скачать торрент  

Открытое море / Alta Mar / High Seas

Год выпуска: 2019
Страна: Испания
Жанр: Драма, криминал, детектив
Продолжительность: ~ 00:45:00

Перевод: Профессиональный (многоголосый закадровый) (AMS)

Режиссёр: Лино Эскалера, Карлос Седес

В ролях: Ивана Бакеро, Алехандра Ониэва, Элой Асорин, Чики Фернандес, Тамар Новас, Даниэль Лунд, Наталия Родригес, Лаура Пратс, Игнасио Монтес и другие

Описание:
В 1940 году из Европы в Южную Америку отправляется трансатлантический лайнер, который везет счастливых людей, бегущих от войны в новый дивный мир. Среди пассажиров две сестры Каролина и Ева, а также офицер Николас Сала, оказавшийся не в том месте и не в то время.

Через какое-то время на борту появляется труп неизвестного пассажира, которого не было в списке, более того его никто не может вспомнить. Начинается расследование, в ходе которого обнаруживаются «скелеты» как в каждой каюте, так и самого судна.

rating
Сэмпл

Качество: WEB-DLRip
Формат: AVI
Видео: AVC, 720x368 (16:9), 25 fps, ~2090 кбит/с, 0.290 bit/pixel
Аудио 1: Русский, AC3, 48 KHz, 6 channels, 384 kbps
Аудио 2: Английский, AC3, 48 KHz, 6 channels, 384 kbps
Субтитры: нет
General
Complete name : /Alta.mar.[High.Seas].S01E01.400p.WEB-DLRip.AMS.avi
Format : AVI
Format/Info : Audio Video Interleave
File size : 1 017 MiB
Duration : 49mn 22s
Overall bit rate : 2 879 Kbps
Movie name : Alta Mar 1x01 - MVO AMS
Writing application : Lavf57.71.100

Video
ID : 0
Format : MPEG-4 Visual
Format profile : Advanced Simple@L5
Format settings, BVOP : 2
Format settings, QPel : No
Format settings, GMC : No warppoints
Format settings, Matrix : Default (MPEG)
Codec ID : XVID
Codec ID/Hint : XviD
Duration : 49mn 22s
Bit rate : 2 094 Kbps
Width : 720 pixels
Height : 368 pixels
Display aspect ratio : 1.957
Frame rate : 25.000 fps
Color space : YUV
Chroma subsampling : 4:2:0
Bit depth : 8 bits
Scan type : Progressive
Compression mode : Lossy
Bits/(Pixel*Frame) : 0.316
Stream size : 740 MiB (73%)
Title : Alta Mar 1x01 - MVO AMS
Writing library : XviD 67

Audio #1
ID : 1
Format : AC-3
Format/Info : Audio Coding 3
Mode extension : CM (complete main)
Format settings, Endianness : Big
Codec ID : 2000
Duration : 49mn 22s
Bit rate mode : Constant
Bit rate : 384 Kbps
Channel(s) : 6 channels
Channel positions : Front: L C R, Side: L R, LFE
Sampling rate : 48.0 KHz
Frame rate : 31.250 fps (1536 spf)
Bit depth : 16 bits
Compression mode : Lossy
Stream size : 136 MiB (13%)
Alignment : Aligned on interleaves
Interleave, duration : 32 ms (0.80 video frame)
Title : MVO AMS

Audio #2
ID : 2
Format : AC-3
Format/Info : Audio Coding 3
Mode extension : CM (complete main)
Format settings, Endianness : Big
Codec ID : 2000
Duration : 49mn 22s
Bit rate mode : Constant
Bit rate : 384 Kbps
Channel(s) : 6 channels
Channel positions : Front: L C R, Side: L R, LFE
Sampling rate : 48.0 KHz
Frame rate : 31.250 fps (1536 spf)
Bit depth : 16 bits
Compression mode : Lossy
Stream size : 136 MiB (13%)
Alignment : Aligned on interleaves
Interleave, duration : 32 ms (0.80 video frame)
Title : Original
скриншот  скриншот  скриншот  
pb.wtf



Скачать Открытое море через торрент https://a.radikal.ru/a22/1905/a0/87798ae895f6.jpg Скачать фильм Открытое море через торрент бесплантно в хорошем качестве Описание:В 1940 году из Европы в Южную Америку отправляется трансатлантический лайнер, который везет счастливых людей, бегущих от войны в ... 5 10 1
Торрент: Зарегистрирован [2019-06-01 06:49] · скачан: 86 раз
Статус: √ проверено
Размер: 6.77 GB
Как cкачать? Как скачать Открытое море через торрент | qTorrent

% Раздел Тема Автор DL S | L
Зарубежные сериалы [ 5.66 GB ] Открытое море / Alta mar / High Seas / Сезон: 2 / Серии 1-8 из 8 [2019 WEBRip] MVO [TVShows] bober100 Скачать
1 | 0
Зарубежные сериалы [ 5.47 GB ] Открытое море / Alta Mar / High Seas / Сезон: 2 / Серии: 1-8 из 8 [2019 WEBRip 720p] [MVO] killermax2013 Скачать
1 | 0
Зарубежные сериалы [ 9.68 GB ] Открытое море / Alta mar / High Seas / Сезон: 2 / Серии 1-8 из 8 [2019 WEBRip 1080p] MVO [TVShows] bober100 Скачать
1 | 0
Зарубежные сериалы [ 3.85 GB ] Открытое море / Alta Mar / High Seas / Сезон: 2 / Серии: 1-8 из 8 [2019 WEBRip] [DVO] killermax2013 Скачать
1 | 0
Зарубежные сериалы [ 7.99 GB ] Открытое море / Alta Mar / High Seas / Сезон: 2 / Серии: 1-8 из 8 [2019 WEBRip 720p] [DVO] killermax2013 Скачать
1 | 0
Зарубежные сериалы [ 10.09 GB ] Открытое море / Alta Mar / High Seas / Сезон: 1 / Серии: 1-8 из 8 [2019 WEB-DL 1080p] [MVO] killermax2013 Скачать
1 | 0

28-11-2019 20:33  

Отключить всю рекламу на сайте

    Дорогой пользователь! Огромная просьба, поблагодарите релизера, оцените раздачу и оставьте свои комментарий, если Вы скачали Открытое море через торрент бесплатно! Внесите свою лепту в развитие PiratBit!
    Комментировать посты могут только пользователи прошедшие не сложную регистрацию
    Показать сообщения:    

    Открытое море через торрент
    Скачать бесплатно Открытое море
    Открытое море скачать торрент
    Открытое море смотреть онлайн
    Cкачать фильм Открытое море бесплатно
    Открытое море скачать торрент в хорошем качестве
    Открытое море смотреть онлайн бесплатно в хорошем качестве


    Вы не можете начинать темы
    Вы не можете отвечать на сообщения
    Вы не можете редактировать свои сообщения
    Вы не можете удалять свои сообщения
    Вы не можете голосовать в опросах
    Вы не можете прикреплять файлы к сообщениям
    Вы можете скачивать файлы