Ссылка на приватное зеркало всего за 1$. Внимание количество ограничено!!!

iTunes

iTunes

iTunes

1

iTunes

iTunes

iTunes

iTunes

iTunes

30
pack

Новость дня

ВАЖНО

!!Акция!!

Alien_RageХит недели

RePack

Resident Evil 21

ИГРА 18+

pack

RePack

jed

!!Акция!!

Alien_Rage

RePack

fifa19

RePack

Assassins Creed: Odyssey

RePack

NEED FOR SPEED™ PAYBACK

4 сезон

9 сезон

Бесстыжие 9 сезон

Все сериалы

все сериалы на PB.wtf

RePack

FAR CRY 5
  

Рассвет (Павел Сидоров) [2019, ужасы, триллер, BDRip-AVC] [GER Transfer / Лицензия] pb.wtf

Рассвет через торрент pb.wtf

Раздают: 2 [ 0 KB/s ]
Размер: 1.46 GB | Добавлен: 3 мес. 27 д. назад | Торрент скачан:73 раза
Скачать  

01-06-2019 07:14 Рассвет Скачать торрент  

Рассвет
Год выпуска: 2019
Страна: Россия
Жанр: ужасы, триллер
Продолжительность: 01:37:52
Перевод: Не требуется | Лицензия Blu-Ray GER
Субтитры: отсутствуют

Режиссер: Павел Сидоров

rating

В ролях: Оксана Акиньшина, Александра Дроздова, Александр Молочников, Анна Слю, Олег Васильков, Кузьма Котрелев, Анастасия Куимова, Валерий Кухарешин, Мирослав Пенцов

Описание: У главной героини при загадочных обстоятельствах погибает брат. Девушку начинают преследовать реалистичные кошмары, и она отправляется в институт сомнологии, где ее вместе с другими пациентами погружают в совместное осознанное сновидение. Но после наступления рассвета они проснутся совсем в другой реальности, которая страшнее любого кошмара...

Качество: BDRip-AVC | GER Transfer
Формат: MKV

Видео: 1024x428 (2,40:1), 23,976 fps, MPEG-4 AVC ~ 1685 Кbps avg, 0.160 bit/pixel
Аудио: AC3, 48 kHz, 6 ch, ~448.00 kbps avg | русский | Blu-Ray GER
скриншот  скриншот  скриншот  скриншот  скриншот  

Общее
Уникальный идентификатор : 184713219312692747880331732164861163251 (0x8AF678D64AF2EDC2D4934CE62FBEF6F3)
Полное имя : Quiet.Comes.the.Dawn.2019.Lic.BDRip.x264.1.46Gb.mkv
Формат : Matroska
Версия формата : Version 4
Размер файла : 1,46 Гбайт
Продолжительность : 1 ч. 37 м.
Общий поток : 2130 Кбит/сек
Название фильма : Рассвет (2019)
Дата кодирования : UTC 2020-02-03 19:21:18
Программа кодирования : mkvmerge v41.0.0 ('Smarra') 64-bit
Библиотека кодирования : libebml v1.3.9 + libmatroska v1.5.2
Обложка : Yes
Attachments : cover.jpg

Видео
Идентификатор : 1
Формат : AVC
Формат/Информация : Advanced Video Codec
Профиль формата : High@L4.1
Настройки формата : CABAC / 9 Ref Frames
Параметр CABAC формата : Да
Параметр RefFrames формата : 9 кадров
Идентификатор кодека : V_MPEG4/ISO/AVC
Продолжительность : 1 ч. 37 м.
Битрейт : 1685 Кбит/сек
Ширина : 1024 пикселя
Высота : 428 пикселей
Соотношение сторон : 2,40:1
Режим частоты кадров : Постоянный
Частота кадров : 23,976 (24000/1001) кадра/сек
Цветовое пространство : YUV
Субдискретизация насыщенности : 4:2:0
Битовая глубина : 8 бит
Тип развёртки : Прогрессивная
Бит/(Пиксели*Кадры) : 0.160
Размер потока : 1,15 Гбайт (79%)
Заголовок : #stillet
Библиотека кодирования : x264 core 152 r2851bm ba24899
Настройки программы : cabac=1 / ref=9 / deblock=1:-3:-3 / analyse=0x3:0x113 / me=umh / subme=11 / psy=1 / psy_rd=1.00:0.15 / mixed_ref=1 / me_range=32 / chroma_me=1 / trellis=2 / 8x8dct=1 / cqm=0 / deadzone=21,11 / fast_pskip=0 / chroma_qp_offset=-3 / threads=8 / lookahead_threads=3 / sliced_threads=0 / nr=0 / decimate=0 / interlaced=0 / bluray_compat=0 / constrained_intra=0 / bframes=10 / b_pyramid=2 / b_adapt=2 / b_bias=0 / direct=3 / weightb=1 / open_gop=0 / weightp=2 / keyint=240 / keyint_min=23 / scenecut=40 / intra_refresh=0 / rc=2pass / mbtree=0 / bitrate=1685 / ratetol=1.0 / qcomp=0.60 / qpmin=0 / qpmax=69 / qpstep=4 / cplxblur=20.0 / qblur=0.5 / ip_ratio=1.40 / pb_ratio=1.30 / aq=1:1.00
Язык : German
Default : Да
Forced : Нет

Аудио
Идентификатор : 2
Формат : AC-3
Формат/Информация : Audio Coding 3
Коммерческое название : Dolby Digital
Идентификатор кодека : A_AC3
Продолжительность : 1 ч. 37 м.
Вид битрейта : Постоянный
Битрейт : 448 Кбит/сек
Каналы : 6 каналов
ChannelLayout : L R C LFE Ls Rs
Частота : 48,0 КГц
Частота кадров : 31,250 кадров/сек (1536 SPF)
Метод сжатия : С потерями
Размер потока : 314 Мбайт (21%)
Заголовок : Blu-ray GER
Язык : Russian
Default : Да
Forced : Да

Меню
00:00:00.000 : de:00:00:00.000
00:03:34.923 : de:00:03:34.923
00:09:57.639 : de:00:09:57.639
00:16:47.340 : de:00:16:47.340
00:23:19.982 : de:00:23:19.982
00:32:04.381 : de:00:32:04.381
00:43:36.280 : de:00:43:36.280
00:52:23.891 : de:00:52:23.891
01:02:26.242 : de:01:02:26.242
01:10:04.409 : de:01:10:04.409
01:18:24.158 : de:01:18:24.158
01:28:40.357 : de:01:28:40.357
01:33:40.490 : de:01:33:40.490
pb.wtf



Скачать Рассвет через торрент https://i111.fastpic.ru/big/2020/0203/46/f243ba3ac2681e8f88bda807d9217946.jpg Скачать фильм Рассвет через торрент бесплантно в хорошем качестве Описание: У главной героини при загадочных обстоятельствах погибает брат. Девушку начинают преследовать реалистичные кошмары, и она ... 10 10 12
Торрент: Зарегистрирован [2020-02-03 20:45] · скачан: 73 раз
Статус: √ проверено
Размер: 1.46 GB
Как cкачать? Как скачать Рассвет через торрент | qTorrent

% Раздел Тема Автор DL S | L
Фильмы [HD 720p, 1080p] (Хороший звук DUB, MVO) [ 6.1 GB ] Пьяный рассвет / Tequila Sunrise [1988 BDRip 720p by msltel] DUB MVO DVO 4 x AVO msltel Скачать
1 | 0
Наши сериалы [ 2.25 GB ] Наступит рассвет / Серии: 1-4 из 4 [2017 SATRip-AVC] aleksan55 Скачать
1 | 0
Наши сериалы [ 1.1 GB ] Рассвет на Санторини / Серии: 1-2 из 2 [2017 история SATRip-AVC] aleksan55 Скачать
1 | 0
Сборники отечественного шансона [ 677 MB ] VA - Музыка для души. Холодный осенний рассвет 2017 / MP3 / 256 kbps / Шансон bober100 Скачать
1 | 0
RTS (стратегии в реальном времени) [ 4.62 GB ] Warhammer 40k Dawn of War: Рассвет войны - Зов улья 2011 [ПираткаRUStrategy / 3D] =Чувак= Скачать
2 | 0
Фильмы до 2000 г. [ 1.45 GB ] От заката до рассвета / From Dusk Till Dawn [1996 DVDRip] [Fullscreen] [DVO] killermax2013 Скачать
1 | 0
National Geographic [ 692 MB ] Рассвет нацизма. Становление Гитлера / Dawn of the Nazis: Becoming Hitler [2017 Документальный война история SATRip ] Armstrong Скачать
1 | 0


Последний раз редактировалось: bober100 (2020-02-03 20:45), всего редактировалось 2 раз(а)

28-11-2019 20:33  

Отключить всю рекламу на сайте

    Дорогой пользователь! Огромная просьба, поблагодарите релизера, оцените раздачу и оставьте свои комментарий, если Вы скачали Рассвет через торрент бесплатно! Внесите свою лепту в развитие PiratBit!
    Комментировать посты могут только пользователи прошедшие не сложную регистрацию
    Показать сообщения:    

    Рассвет через торрент
    Скачать бесплатно Рассвет
    Рассвет скачать торрент
    Рассвет смотреть онлайн
    Cкачать фильм Рассвет бесплатно
    Рассвет скачать торрент в хорошем качестве
    Рассвет смотреть онлайн бесплатно в хорошем качестве


    Вы не можете начинать темы
    Вы не можете отвечать на сообщения
    Вы не можете редактировать свои сообщения
    Вы не можете удалять свои сообщения
    Вы не можете голосовать в опросах
    Вы не можете прикреплять файлы к сообщениям
    Вы можете скачивать файлы