новый адрес пиратбит piratbit
Мега распродажа FORZA HORIZON 4 ULTIMATE+ВСЕ DLC+ОНЛАЙН всего за 499р. 349 руб. (супер цена). Внимание количество ограничено!!!

iTunes

1+1

iTunes

мы

iTunes

1

iTunes

Чернобыль

iTunes

Ральф против интернета

Лицензия

ПШазам

Лицензия

Игра престолов

Лицензия

30
pack

ВАЖНО

!!Акция!!

Alien_RageХит недели

RePack

Resident Evil 21

ИГРА 18+

pack

RePack

Metro:Exodus

!!Акция!!

Alien_Rage

RePack

fifa19

RePack

Assassins Creed: Odyssey

RePack

NEED FOR SPEED™ PAYBACK

3 сезон

9 сезон

Бесстыжие 9 сезон

Все сериалы

все сериалы на PB.wtf

RePack

FAR CRY 5
Ребята, катастрофически не хватает 1900р. для оплаты серверов за Октябрь (всвязи с блокировками трафик упал в 3 раза), 1-2р., выручайте.
  

Рассвет (Павел Сидоров) [2019, ужасы, триллер, WEB-DLRip-AVC] [iTunes] pb.wtf

Рассвет через торрент pb.wtf

Размер: 1.37 GB | Добавлен: 5 мес. 14 д. назад | Торрент скачан:204 раза
Скачать  

01-06-2019 07:14 Рассвет Скачать торрент  

Рассвет Год выпуска: 2019
Страна: Россия
Жанр: ужасы, триллер
Продолжительность: 01:37:41
Перевод: Не требуется | iTunes
Субтитры: отсутствуют

Режиссер: Павел Сидоров

rating

В ролях:

Оксана Акиньшина, Александра Дроздова, Александр Молочников, Анна Слю, Олег Васильков, Кузьма Котрелев, Анастасия Куимова, Валерий Кухарешин, Мирослав Пенцов

Описание:

У главной героини при загадочных обстоятельствах погибает брат. Девушку начинают преследовать реалистичные кошмары, и она отправляется в институт сомнологии, где ее вместе с другими пациентами погружают в совместное осознанное сновидение. Но после наступления рассвета они проснутся совсем в другой реальности, которая страшнее любого кошмара...

Качество: WEB-DLRip-AVC
Формат: MKV

Видео: 1024x424, (2,40:1), 23.976 fps, AVC MPEG-4 (x264), High@L4.1 ~ 1620 kbps , 0.156 bit/pixel
Аудио: 48 kHz, AC3 Dolby Digital, 3/2 (L,C,R,l,r) + LFE ch, ~384 kbps
скриншот  скриншот  скриншот  скриншот  

Общее
Уникальный идентификатор : 214212843135996189102055454766777053027 (0xA127E4958A26F51E9A1DD52894D12F63)
Полное имя : C:\Рассвет.(2019).WEB-DLRip.(AVC).by.Серый1779.Files-x.mkv
Формат : Matroska
Версия формата : Version 2
Размер файла : 1,37 Гбайт
Продолжительность : 1 ч. 37 м.
Общий поток : 2003 Кбит/сек
Дата кодирования : UTC 2019-05-31 08:06:13
Программа кодирования : mkvmerge v7.8.0 ('River Man') 32bit built on Apr 3 2015 12:11:22
Библиотека кодирования : libebml v1.3.1 + libmatroska v1.4.2

Видео
Идентификатор : 1
Формат : AVC
Формат/Информация : Advanced Video Codec
Профиль формата : High@L4.1
Настройки формата : CABAC / 9 Ref Frames
Параметр CABAC формата : Да
Параметр RefFrames формата : 9 кадров
Идентификатор кодека : V_MPEG4/ISO/AVC
Продолжительность : 1 ч. 37 м.
Битрейт : 1620 Кбит/сек
Ширина : 1024 пикселя
Высота : 424 пикселя
Соотношение сторон : 2,40:1
Режим частоты кадров : Постоянный
Частота кадров : 23,976 кадра/сек
Цветовое пространство : YUV
Субдискретизация насыщенности : 4:2:0
Битовая глубина : 8 бит
Тип развёртки : Прогрессивная
Бит/(Пиксели*Кадры) : 0.156
Размер потока : 1,08 Гбайт (79%)
Библиотека кодирования : x264 core 146 r2538 121396c
Настройки программы : cabac=1 / ref=9 / deblock=1:-2:-1 / analyse=0x3:0x133 / me=umh / subme=9 / psy=1 / psy_rd=1.00:0.15 / mixed_ref=1 / me_range=32 / chroma_me=1 / trellis=2 / 8x8dct=1 / cqm=0 / deadzone=21,11 / fast_pskip=0 / chroma_qp_offset=-3 / threads=18 / lookahead_threads=3 / sliced_threads=0 / nr=0 / decimate=1 / interlaced=0 / bluray_compat=0 / constrained_intra=0 / bframes=9 / b_pyramid=2 / b_adapt=2 / b_bias=0 / direct=1 / weightb=1 / open_gop=0 / weightp=2 / keyint=250 / keyint_min=23 / scenecut=40 / intra_refresh=0 / rc=2pass / mbtree=0 / bitrate=1620 / ratetol=1.0 / qcomp=0.60 / qpmin=0 / qpmax=69 / qpstep=4 / cplxblur=20.0 / qblur=0.5 / ip_ratio=1.40 / pb_ratio=1.30 / aq=2:1.00
Default : Да
Forced : Нет
Цветовой диапазон : Limited
Основные цвета : BT.709
Характеристики трансфера : BT.709
Коэффициенты матрицы : BT.709

Аудио
Идентификатор : 2
Формат : AC-3
Формат/Информация : Audio Coding 3
Коммерческое название : Dolby Digital
Идентификатор кодека : A_AC3
Продолжительность : 1 ч. 37 м.
Вид битрейта : Постоянный
Битрейт : 384 Кбит/сек
Каналы : 6 каналов
ChannelLayout : L R C LFE Ls Rs
Частота : 48,0 КГц
Частота кадров : 31,250 кадров/сек (1536 SPF)
Битовая глубина : 16 бит
Метод сжатия : С потерями
Размер потока : 268 Мбайт (19%)
ServiceKind/String : Complete Main
Default : Да
Forced : Нет
pb.wtf



Скачать Рассвет через торрент https://a.radikal.ru/a20/1902/47/0788b72906fa.jpg Скачать фильм Рассвет через торрент бесплантно в хорошем качестве Описание: У главной героини при загадочных обстоятельствах погибает брат. Девушку начинают преследовать реалистичные кошмары, и она ... 10 10 10
Торрент: Зарегистрирован [2019-06-01 07:14] · скачан: 204 раз
Статус: √ проверено
Размер: 1.37 GB
Как cкачать? Как скачать Рассвет через торрент | qTorrent

% Раздел Тема Автор DL S | L
Фильмы [HD 720p, 1080p] (Хороший звук DUB, MVO) [ 6.1 GB ] Пьяный рассвет / Tequila Sunrise [1988 BDRip 720p by msltel] DUB MVO DVO 4 x AVO msltel Скачать
1 | 0
Наши сериалы [ 2.25 GB ] Наступит рассвет / Серии: 1-4 из 4 [2017 SATRip-AVC] aleksan55 Скачать
1 | 0
Наши сериалы [ 1.1 GB ] Рассвет на Санторини / Серии: 1-2 из 2 [2017 история SATRip-AVC] aleksan55 Скачать
1 | 0
Сборники отечественного шансона [ 677 MB ] VA - Музыка для души. Холодный осенний рассвет 2017 / MP3 / 256 kbps / Шансон bober100 Скачать
1 | 0
RTS (стратегии в реальном времени) [ 4.62 GB ] Warhammer 40k Dawn of War: Рассвет войны - Зов улья 2011 [ПираткаRUStrategy / 3D] =Чувак= Скачать
2 | 0
Фильмы до 2000 г. [ 1.45 GB ] От заката до рассвета / From Dusk Till Dawn [1996 DVDRip] [Fullscreen] [DVO] killermax2013 Скачать
1 | 0
National Geographic [ 692 MB ] Рассвет нацизма. Становление Гитлера / Dawn of the Nazis: Becoming Hitler [2017 Документальный война история SATRip ] Armstrong Скачать
1 | 0


>> Регистрируемся здесь <<






Отзывы и комментарии о схеме читаем и пишем здесь: ---> Отзывы и комментарии о схеме

Новые благодарочки в телеграм довольных пользователей:
скриншот   скриншот   скриншот   скриншот   скриншот

01-06-2019 17:54 Рассвет Скачать торрент  

Чушь собачья, зря потратил время.pb.wtf



    Дорогой пользователь! Огромная просьба, поблагодарите релизера, оцените раздачу и оставьте свои комментарий, если Вы скачали Рассвет через торрент бесплатно! Внесите свою лепту в развитие PiratBit!
    Комментировать посты могут только пользователи прошедшие не сложную регистрацию
    Показать сообщения:    

    Рассвет через торрент
    Скачать бесплатно Рассвет
    Рассвет скачать торрент
    Рассвет смотреть онлайн
    Cкачать фильм Рассвет бесплатно
    Рассвет скачать торрент в хорошем качестве
    Рассвет смотреть онлайн бесплатно в хорошем качестве


    Вы не можете начинать темы
    Вы не можете отвечать на сообщения
    Вы не можете редактировать свои сообщения
    Вы не можете удалять свои сообщения
    Вы не можете голосовать в опросах
    Вы не можете прикреплять файлы к сообщениям
    Вы можете скачивать файлы