Ссылка на приватное зеркало нашего сайта всего за 1$. Внимание количество ограничено!!!

2 сезон

iTunes

1 сезон

1

2 сезон

2 сезон

iTunes

1 сезон

RePack

30

Новинка

ВАЖНО

ИГРА 18+

pack

RePack

MK11
pack

Забери бонус

RePack

jed

!!Акция!!

Alien_Rage

RePack

fifa19

RePack

Assassins Creed: Odyssey

RePack

NEED FOR SPEED™ PAYBACK

4 сезон

9 сезон

Бесстыжие 9 сезон

Все сериалы

все сериалы на PB.wtf

RePack

FAR CRY 5
  

Бойтесь ходячих мертвецов / Fear the Walking Dead / Сезон: 5 / Серии: 1-16 из 16 (Майкл Е. Сатраземис, Стефан Шварц, Эндрю Бернштейн) [2019, Ужасы, фантастика, триллер, драма, HDTVRip] DVO [Kerob] pb.wtf

Бойтесь ходячих мертвецов через торрент pb.wtf

Размер: 7.95 GB | Добавлен: 1 год 1 мес. назад | Торрент скачан:57 раз
Скачать  

01-06-2019 09:42 Бойтесь ходячих мертвецов Скачать торрент  

Бойтесь ходячих мертвецов / Fear the Walking Dead Год выпуска: 2019
Страна: США
Жанр: Ужасы, фантастика, триллер, драма
Продолжительность: ~ 00:48:00 серия
Перевод: Любительский (двухголосый) | Kerob
Субтитры: отсутствуют

Режиссер: Майкл Е. Сатраземис, Стефан Шварц, Эндрю Бернштейн

rating

В ролях: Клифф Кёртис, Ким Диккенс, Алисия Дебнем Кери, Фрэнк Диллэйн, Рубен Блэйдс, Мерседес Масон, Колман Доминго, Лоренцо Джеймс Хенри, Элизабет Родригес, Тони Френч и другие.

Описание: Действия сериала происходят параллельно с событиями зомби-апокалипсиса, показанными в сериале «Ходячие мертвецы», но в совершенно другом месте — Лос-Анджелесе. Акцент будет сделан на семейные отношения, в частности, проблемы отцов и детей. История вращается вокруг Шона — разведённого школьного учителя и Нэнси руководительницы женского совета. А так же детей Нэнси: Ника, который борется с наркотической зависимостью и амбициозной дочери Эшли.

Качество: HDTVRip
Формат: AVI

Видео: 704x396, ~ 1284 Кбит/сек, 23,976 fps
Аудио: Русский / MP3 / 2.0 / 128 kbs
скриншот  скриншот  скриншот  скриншот  

Общее
Полное имя : D:\Fear.The.Walking.Dead.S05.400p.Kerob\Fear.The.Walking.Dead.S05E01.400p.Kerob.avi
Формат : AVI
Формат/Информация : Audio Video Interleave
Размер файла : 490 Мбайт
Продолжительность : 48 м. 3 с.
Общий поток : 1425 Кбит/сек
Программа кодирования : Lavf58.12.100

Видео
Идентификатор : 0
Формат : MPEG-4 Visual
Идентификатор кодека : FMP4
Продолжительность : 48 м. 3 с.
Битрейт : 1284 Кбит/сек
Ширина : 704 пикселя
Высота : 396 пикселей
Соотношение сторон : 16:9
Частота кадров : 23,976 кадра/сек
Цветовое пространство : YUV
Субдискретизация насыщенности : 4:2:0
Тип развёртки : Прогрессивная
Метод сжатия : С потерями
Бит/(Пиксели*Кадры) : 0.192
Размер потока : 441 Мбайт (90%)

Аудио
Идентификатор : 1
Формат : MPEG Audio
Версия формата : Version 1
Профиль формата : Layer 3
Режим : Joint stereo
Расширение режима : MS Stereo
Идентификатор кодека : 55
Идентификатор кодека/Подсказка : MP3
Продолжительность : 48 м. 3 с.
Вид битрейта : Постоянный
Битрейт : 128 Кбит/сек
Каналы : 2 канала
Частота : 44,1 КГц
Метод сжатия : С потерями
Размер потока : 44,0 Мбайт (9%)
Выравнивание : Соединение по промежуткам
Продолжительность промежутка : 26 мс. (0,63 видеокадр)
Время предзагрузки промежутка : 26 мс.

Внимание! Раздача ведётся путём добавления новых серий; при каждом добавлении создаётся новый торрент. Чтобы начать докачку новой серии, пользователям необходимо сделать следующее:
(1) остановить скачивание,
(2) удалить старый торрент у себя из клиента (старые серии удалять не надо),
(3) скачать новый торрент и запустить его у себя в клиенте вместо старого, при этом указать клиенту путь в старую папку куда и должно происходить скачивание новых серий.

Ваш клиент при этом должен произвести хеширование (проверку) старой папки (если не производит сам - помогите ему сделать это), и будет докачивать только те серии которых у вас ещё нет. Старые серии при этом не удаляются, а продолжают раздаваться!

Eсли вы уже удалили старые серии, то предотвратить повторную закачку старых серий можно, отжав галочку в соответсвующих местах при запуске нового торрента. По возможности, желательно не удалять старые серии как можно дольше чтобы релизёр не столько продолжал раздавать старые серии, а смог сконцентрироваться на новых.
pb.wtf



Скачать Бойтесь ходячих мертвецов через торрент http://lostpix.com/img/2019-06/01/lfqhubjovucn1ks97ehg1wvf3.jpg Скачать фильм Бойтесь ходячих мертвецов через торрент бесплантно в хорошем качестве Описание: Действия сериала происходят параллельно с событиями зомби-апокалипсиса, показанными в сериале «Ходячие мертвецы», но в совершенно ... 10 10 5
Торрент: Зарегистрирован [2019-09-28 08:45] · скачан: 57 раз
Статус: T временная
Размер: 7.95 GB
Как cкачать? Как скачать Бойтесь ходячих мертвецов через торрент | qTorrent

% Раздел Тема Автор DL S | L
Зарубежные сериалы [ 30.85 GB ] Бойтесь ходячих мертвецов / Fear the Walking Dead / Сезон: 5 / Серии: 1-16 из 16 [2019 WEB-DL 720p] MVO [LostFilm] bober100 Скачать
1 | 0
Зарубежные сериалы [ 53.71 GB ] Бойтесь ходячих мертвецов / Fear the Walking Dead / Сезон: 5 / Серии: 1-16 из 16 [2019 WEB-DL 1080p] MVO [AMS] bober100 Скачать
1 | 0
T Зарубежные сериалы [ 22.82 GB ] Бойтесь ходячих мертвецов / Fear the Walking Dead / Сезон: 5 / Серии: 1-16 из 16 [2019 HDTVRip 720p] DVO [Kerob] bober100 Скачать
1 | 1

28-11-2019 20:33  

Отключить всю рекламу на сайте

    Дорогой пользователь! Огромная просьба, поблагодарите релизера, оцените раздачу и оставьте свои комментарий, если Вы скачали Бойтесь ходячих мертвецов через торрент бесплатно! Внесите свою лепту в развитие PiratBit!
    Комментировать посты могут только пользователи прошедшие не сложную регистрацию
    Показать сообщения:    

    Бойтесь ходячих мертвецов через торрент
    Скачать бесплатно Бойтесь ходячих мертвецов
    Бойтесь ходячих мертвецов скачать торрент
    Бойтесь ходячих мертвецов смотреть онлайн
    Cкачать фильм Бойтесь ходячих мертвецов бесплатно
    Бойтесь ходячих мертвецов скачать торрент в хорошем качестве
    Бойтесь ходячих мертвецов смотреть онлайн бесплатно в хорошем качестве


    Вы не можете начинать темы
    Вы не можете отвечать на сообщения
    Вы не можете редактировать свои сообщения
    Вы не можете удалять свои сообщения
    Вы не можете голосовать в опросах
    Вы не можете прикреплять файлы к сообщениям
    Вы можете скачивать файлы